  0
SECTION
  2
HEADER
  9
$ACADVER
  1
AC1014
  9
$ACADMAINTVER
 70
     0
  9
$DWGCODEPAGE
  3
ANSI_1252
  9
$INSBASE
 10
294.299662
 20
170.075265
 30
0.0
  9
$EXTMIN
 10
71.571029
 20
94.039731
 30
0.0
  9
$EXTMAX
 10
295.909615
 20
273.595719
 30
0.0
  9
$LIMMIN
 10
0.0
 20
0.0
  9
$LIMMAX
 10
420.0
 20
297.0
  9
$ORTHOMODE
 70
     0
  9
$REGENMODE
 70
     1
  9
$FILLMODE
 70
     1
  9
$QTEXTMODE
 70
     0
  9
$MIRRTEXT
 70
     1
  9
$DRAGMODE
 70
     2
  9
$LTSCALE
 40
1.0
  9
$OSMODE
 70
    37
  9
$ATTMODE
 70
     1
  9
$TEXTSIZE
 40
2.5
  9
$TRACEWID
 40
1.0
  9
$TEXTSTYLE
  7
STANDARD
  9
$CLAYER
  8
0
  9
$CELTYPE
  6
BYLAYER
  9
$CECOLOR
 62
   256
  9
$CELTSCALE
 40
1.0
  9
$DELOBJ
 70
     1
  9
$DISPSILH
 70
     0
  9
$DIMSCALE
 40
5.0
  9
$DIMASZ
 40
2.0
  9
$DIMEXO
 40
4.5
  9
$DIMDLI
 40
0.0
  9
$DIMRND
 40
1.0
  9
$DIMDLE
 40
0.0
  9
$DIMEXE
 40
1.5
  9
$DIMTP
 40
0.0
  9
$DIMTM
 40
0.0
  9
$DIMTXT
 40
1.8
  9
$DIMCEN
 40
0.0
  9
$DIMTSZ
 40
0.0
  9
$DIMTOL
 70
     0
  9
$DIMLIM
 70
     0
  9
$DIMTIH
 70
     0
  9
$DIMTOH
 70
     0
  9
$DIMSE1
 70
     0
  9
$DIMSE2
 70
     0
  9
$DIMTAD
 70
     1
  9
$DIMZIN
 70
    12
  9
$DIMBLK
  1

  9
$DIMASO
 70
     1
  9
$DIMSHO
 70
     1
  9
$DIMPOST
  1

  9
$DIMAPOST
  1

  9
$DIMALT
 70
     0
  9
$DIMALTD
 70
     2
  9
$DIMALTF
 40
25.4
  9
$DIMLFAC
 40
1.0
  9
$DIMTOFL
 70
     0
  9
$DIMTVP
 40
0.0
  9
$DIMTIX
 70
     0
  9
$DIMSOXD
 70
     0
  9
$DIMSAH
 70
     0
  9
$DIMBLK1
  1

  9
$DIMBLK2
  1

  9
$DIMSTYLE
  2
1-5
  9
$DIMCLRD
 70
     0
  9
$DIMCLRE
 70
     0
  9
$DIMCLRT
 70
     0
  9
$DIMTFAC
 40
1.25
  9
$DIMGAP
 40
1.0
  9
$DIMJUST
 70
     0
  9
$DIMSD1
 70
     0
  9
$DIMSD2
 70
     0
  9
$DIMTOLJ
 70
     1
  9
$DIMTZIN
 70
    12
  9
$DIMALTZ
 70
    12
  9
$DIMALTTZ
 70
    12
  9
$DIMFIT
 70
     5
  9
$DIMUPT
 70
     0
  9
$DIMUNIT
 70
     2
  9
$DIMDEC
 70
     2
  9
$DIMTDEC
 70
     2
  9
$DIMALTU
 70
     2
  9
$DIMALTTD
 70
     2
  9
$DIMTXSTY
  7
STANDARD
  9
$DIMAUNIT
 70
     0
  9
$LUNITS
 70
     2
  9
$LUPREC
 70
     4
  9
$SKETCHINC
 40
1.0
  9
$FILLETRAD
 40
10.0
  9
$AUNITS
 70
     0
  9
$AUPREC
 70
     0
  9
$MENU
  1
.
  9
$ELEVATION
 40
0.0
  9
$PELEVATION
 40
0.0
  9
$THICKNESS
 40
0.0
  9
$LIMCHECK
 70
     0
  9
$BLIPMODE
 70
     0
  9
$CHAMFERA
 40
10.0
  9
$CHAMFERB
 40
10.0
  9
$CHAMFERC
 40
20.0
  9
$CHAMFERD
 40
0.0
  9
$SKPOLY
 70
     0
  9
$TDCREATE
 40
2452163.379366666
  9
$TDUPDATE
 40
2452163.384921528
  9
$TDINDWG
 40
0.0055726852
  9
$TDUSRTIMER
 40
0.0055548611
  9
$USRTIMER
 70
     1
  9
$ANGBASE
 50
0.0
  9
$ANGDIR
 70
     0
  9
$PDMODE
 70
     0
  9
$PDSIZE
 40
0.0
  9
$PLINEWID
 40
0.0
  9
$COORDS
 70
     0
  9
$SPLFRAME
 70
     0
  9
$SPLINETYPE
 70
     6
  9
$SPLINESEGS
 70
     8
  9
$ATTDIA
 70
     0
  9
$ATTREQ
 70
     1
  9
$HANDLING
 70
     1
  9
$HANDSEED
  5
117
  9
$SURFTAB1
 70
     6
  9
$SURFTAB2
 70
     6
  9
$SURFTYPE
 70
     6
  9
$SURFU
 70
     6
  9
$SURFV
 70
     6
  9
$UCSNAME
  2

  9
$UCSORG
 10
0.0
 20
0.0
 30
0.0
  9
$UCSXDIR
 10
1.0
 20
0.0
 30
0.0
  9
$UCSYDIR
 10
0.0
 20
1.0
 30
0.0
  9
$PUCSNAME
  2

  9
$PUCSORG
 10
0.0
 20
0.0
 30
0.0
  9
$PUCSXDIR
 10
1.0
 20
0.0
 30
0.0
  9
$PUCSYDIR
 10
0.0
 20
1.0
 30
0.0
  9
$USERI1
 70
     0
  9
$USERI2
 70
     0
  9
$USERI3
 70
     0
  9
$USERI4
 70
     0
  9
$USERI5
 70
     0
  9
$USERR1
 40
0.0
  9
$USERR2
 40
0.0
  9
$USERR3
 40
0.0
  9
$USERR4
 40
0.0
  9
$USERR5
 40
0.0
  9
$WORLDVIEW
 70
     1
  9
$SHADEDGE
 70
     3
  9
$SHADEDIF
 70
    70
  9
$TILEMODE
 70
     1
  9
$MAXACTVP
 70
    48
  9
$PINSBASE
 10
0.0
 20
0.0
 30
0.0
  9
$PLIMCHECK
 70
     0
  9
$PEXTMIN
 10
1.000000E+20
 20
1.000000E+20
 30
1.000000E+20
  9
$PEXTMAX
 10
-1.000000E+20
 20
-1.000000E+20
 30
-1.000000E+20
  9
$PLIMMIN
 10
0.0
 20
0.0
  9
$PLIMMAX
 10
420.0
 20
297.0
  9
$UNITMODE
 70
     0
  9
$VISRETAIN
 70
     1
  9
$PLINEGEN
 70
     0
  9
$PSLTSCALE
 70
     1
  9
$TREEDEPTH
 70
  3020
  9
$PICKSTYLE
 70
     1
  9
$CMLSTYLE
  2
STANDARD
  9
$CMLJUST
 70
     0
  9
$CMLSCALE
 40
20.0
  9
$PROXYGRAPHICS
 70
     1
  9
$MEASUREMENT
 70
     0
  0
ENDSEC
  0
SECTION
  2
CLASSES
  0
CLASS
  1
ACDBDICTIONARYWDFLT
  2
AcDbDictionaryWithDefault
  3
AutoCAD 2000
 90
        0
280
     1
281
     0
  0
CLASS
  1
ACDBPLACEHOLDER
  2
AcDbPlaceHolder
  3
AutoCAD 2000
 90
        0
280
     1
281
     0
  0
CLASS
  1
LAYOUT
  2
AcDbLayout
  3
AutoCAD 2000
 90
        0
280
     1
281
     0
  0
CLASS
  1
LONG_TRANSACTION
  2
AcDbLongTransaction
  3
AutoCAD 2000
 90
        0
280
     1
281
     0
  0
CLASS
  1
LWPOLYLINE
  2
AcDbPolyline
  3
"AutoCAD"
 90
        0
280
     0
281
     1
  0
CLASS
  1
HATCH
  2
AcDbHatch
  3
"ACAD_SEDONA"
 90
        0
280
     0
281
     1
  0
CLASS
  1
XRECORD
  2
AcDbXrecord
  3
"<Built In>"
 90
        0
280
     0
281
     0
  0
ENDSEC
  0
SECTION
  2
TABLES
  0
TABLE
  2
VPORT
  5
20
100
AcDbSymbolTable
 70
     1
  0
VPORT
  5
21
100
AcDbSymbolTableRecord
100
AcDbViewportTableRecord
  2
*ACTIVE
 70
     0
 10
0.0
 20
0.0
 11
1.0
 21
1.0
 12
249.288601
 22
165.288353
 13
0.0
 23
0.0
 14
10.0
 24
10.0
 15
10.0
 25
10.0
 16
0.0
 26
0.0
 36
1.0
 17
0.0
 27
0.0
 37
0.0
 40
496.057101
 41
1.465261
 42
50.0
 43
0.0
 44
0.0
 50
0.0
 51
0.0
 71
     0
 72
   100
 73
     1
 74
     3
 75
     0
 76
     0
 77
     0
 78
     0
  0
ENDTAB
  0
TABLE
  2
LTYPE
  5
17
100
AcDbSymbolTable
 70
     2
  0
LTYPE
  5
18
102
{ACAD_XDICTIONARY
360
19
102
}
100
AcDbSymbolTableRecord
100
AcDbLinetypeTableRecord
  2
BYBLOCK
 70
     0
  3

 72
    65
 73
     0
 40
0.0
  0
LTYPE
  5
1B
102
{ACAD_XDICTIONARY
360
1C
102
}
100
AcDbSymbolTableRecord
100
AcDbLinetypeTableRecord
  2
BYLAYER
 70
     0
  3

 72
    65
 73
     0
 40
0.0
  0
LTYPE
  5
8
102
{ACAD_XDICTIONARY
360
9
102
}
100
AcDbSymbolTableRecord
100
AcDbLinetypeTableRecord
  2
CONTINUOUS
 70
     0
  3
Solid line
 72
    65
 73
     0
 40
0.0
  0
LTYPE
  5
72
100
AcDbSymbolTableRecord
100
AcDbLinetypeTableRecord
  2
CENTER2
 70
     0
  3
___ _ ___ _ ___ _ ___ _ ___ _ ___ _ ___ _ ___ _
 72
    65
 73
     4
 40
28.575
 49
19.05
 74
     0
 49
-3.175
 74
     0
 49
3.175
 74
     0
 49
-3.175
 74
     0
  0
ENDTAB
  0
TABLE
  2
LAYER
  5
12
100
AcDbSymbolTable
 70
     5
  0
LAYER
  5
7
100
AcDbSymbolTableRecord
100
AcDbLayerTableRecord
  2
0
 70
     0
 62
     7
  6
CONTINUOUS
  0
LAYER
  5
41
100
AcDbSymbolTableRecord
100
AcDbLayerTableRecord
  2
DANCON
 70
     0
 62
     4
  6
CONTINUOUS
  0
LAYER
  5
44
100
AcDbSymbolTableRecord
100
AcDbLayerTableRecord
  2
HATCH
 70
     0
 62
     1
  6
CONTINUOUS
  0
LAYER
  5
30
100
AcDbSymbolTableRecord
100
AcDbLayerTableRecord
  2
DIMENSIONS
 70
     0
 62
     2
  6
CONTINUOUS
  0
LAYER
  5
39
102
{ACAD_XDICTIONARY
360
3A
102
}
100
AcDbSymbolTableRecord
100
AcDbLayerTableRecord
  2
DEFPOINTS
 70
     0
 62
     7
  6
CONTINUOUS
  0
ENDTAB
  0
TABLE
  2
STYLE
  5
13
100
AcDbSymbolTable
 70
     1
  0
STYLE
  5
14
102
{ACAD_XDICTIONARY
360
15
102
}
100
AcDbSymbolTableRecord
100
AcDbTextStyleTableRecord
  2
STANDARD
 70
     0
 40
0.0
 41
1.0
 50
0.0
 71
     0
 42
2.5
  3
txt
  4

  0
ENDTAB
  0
TABLE
  2
VIEW
  5
1E
100
AcDbSymbolTable
 70
     0
  0
ENDTAB
  0
TABLE
  2
UCS
  5
1F
100
AcDbSymbolTable
 70
     0
  0
ENDTAB
  0
TABLE
  2
APPID
  5
22
100
AcDbSymbolTable
 70
     1
  0
APPID
  5
23
100
AcDbSymbolTableRecord
100
AcDbRegAppTableRecord
  2
ACAD
 70
     0
  0
ENDTAB
  0
TABLE
  2
DIMSTYLE
  5
24
100
AcDbSymbolTable
 70
     1
  0
DIMSTYLE
105
2C
102
{ACAD_XDICTIONARY
360
2D
102
}
102
{ACAD_REACTORS
330
2F
102
}
100
AcDbSymbolTableRecord
100
AcDbDimStyleTableRecord
  2
1-5
 70
     0
  3

  4

  5

  6

  7

 40
5.0
 41
2.0
 42
4.5
 43
0.0
 44
1.5
 45
1.0
 46
0.0
 47
0.0
 48
0.0
140
1.8
141
0.0
142
0.0
143
25.4
144
1.0
145
0.0
146
1.25
147
1.0
 71
     0
 72
     0
 73
     0
 74
     0
 75
     0
 76
     0
 77
     1
 78
    12
170
     0
171
     2
172
     0
173
     0
174
     0
175
     0
176
     0
177
     0
178
     0
270
     2
271
     2
272
     2
273
     2
274
     2
340
14
275
     0
280
     0
281
     0
282
     0
283
     1
284
    12
285
    12
286
    12
287
     5
288
     0
  0
ENDTAB
  0
TABLE
  2
BLOCK_RECORD
  5
1
100
AcDbSymbolTable
 70
     3
  0
BLOCK_RECORD
  5
2
102
{ACAD_XDICTIONARY
360
3
102
}
100
AcDbSymbolTableRecord
100
AcDbBlockTableRecord
  2
*MODEL_SPACE
  0
BLOCK_RECORD
  5
C
102
{ACAD_XDICTIONARY
360
D
102
}
100
AcDbSymbolTableRecord
100
AcDbBlockTableRecord
  2
*PAPER_SPACE
  0
BLOCK_RECORD
  5
5E
100
AcDbSymbolTableRecord
100
AcDbBlockTableRecord
  2
*X0
  0
BLOCK_RECORD
  5
45
100
AcDbSymbolTableRecord
100
AcDbBlockTableRecord
  2
*X1
  0
BLOCK_RECORD
  5
31
100
AcDbSymbolTableRecord
100
AcDbBlockTableRecord
  2
*D2
  0
ENDTAB
  0
ENDSEC
  0
SECTION
  2
BLOCKS
  0
BLOCK
  5
6
100
AcDbEntity
  8
0
100
AcDbBlockBegin
  2
*MODEL_SPACE
 70
     0
 10
0.0
 20
0.0
 30
0.0
  3
*MODEL_SPACE
  1

  0
ENDBLK
  5
B
100
AcDbEntity
  8
0
100
AcDbBlockEnd
  0
BLOCK
  5
10
100
AcDbEntity
 67
     1
  8
0
100
AcDbBlockBegin
  2
*PAPER_SPACE
 70
     0
 10
0.0
 20
0.0
 30
0.0
  3
*PAPER_SPACE
  1

  0
ENDBLK
  5
11
100
AcDbEntity
 67
     1
  8
0
100
AcDbBlockEnd
  0
BLOCK
  5
6E
100
AcDbEntity
  8
0
100
AcDbBlockBegin
  2
*X0
 70
     1
 10
0.0
 20
0.0
 30
0.0
  3
*X0
  1

  0
LINE
  5
5F
100
AcDbEntity
  8
0
 62
     0
100
AcDbLine
 10
16606.692572
 20
6222.861333
 30
0.0
 11
16612.626045
 21
6229.045287
 31
0.0
  0
LINE
  5
60
100
AcDbEntity
  8
0
 62
     0
100
AcDbLine
 10
16613.472436
 20
6221.793065
 30
0.0
 11
16612.630565
 21
6229.02976
 31
0.0
  0
LINE
  5
61
100
AcDbEntity
  8
0
 62
     0
100
AcDbLine
 10
16606.754599
 20
6222.805802
 30
0.0
 11
16613.483819
 21
6221.76214
 31
0.0
  0
LINE
  5
62
100
AcDbEntity
  8
0
 62
     0
100
AcDbLine
 10
16598.832549
 20
6235.781279
 30
0.0
 11
16603.819836
 21
6237.695719
 31
0.0
  0
LINE
  5
63
100
AcDbEntity
  8
0
 62
     0
100
AcDbLine
 10
16598.958775
 20
6235.313053
 30
0.0
 11
16602.269264
 21
6233.0801
 31
0.0
  0
LINE
  5
64
100
AcDbEntity
  8
0
 62
     0
100
AcDbLine
 10
16602.274646
 20
6233.087105
 30
0.0
 11
16603.819701
 21
6237.691804
 31
0.0
  0
LINE
  5
65
100
AcDbEntity
  8
0
 62
     0
100
AcDbLine
 10
16631.104902
 20
6252.438068
 30
0.0
 11
16631.104902
 21
6252.438068
 31
0.0
  0
LINE
  5
66
100
AcDbEntity
  8
0
 62
     0
100
AcDbLine
 10
16630.178321
 20
6227.071556
 30
0.0
 11
16630.178321
 21
6227.071556
 31
0.0
  0
LINE
  5
67
100
AcDbEntity
  8
0
 62
     0
100
AcDbLine
 10
16616.042307
 20
6217.560202
 30
0.0
 11
16616.042307
 21
6217.560202
 31
0.0
  0
LINE
  5
68
100
AcDbEntity
  8
0
 62
     0
100
AcDbLine
 10
16607.228832
 20
6243.814965
 30
0.0
 11
16607.228832
 21
6243.814965
 31
0.0
  0
LINE
  5
69
100
AcDbEntity
  8
0
 62
     0
100
AcDbLine
 10
16636.088206
 20
6247.614374
 30
0.0
 11
16636.088206
 21
6247.614374
 31
0.0
  0
LINE
  5
6A
100
AcDbEntity
  8
0
 62
     0
100
AcDbLine
 10
16615.828344
 20
6243.860318
 30
0.0
 11
16615.828344
 21
6243.860318
 31
0.0
  0
LINE
  5
6B
100
AcDbEntity
  8
0
 62
     0
100
AcDbLine
 10
16631.894951
 20
6233.624761
 30
0.0
 11
16631.894951
 21
6233.624761
 31
0.0
  0
LINE
  5
6C
100
AcDbEntity
  8
0
 62
     0
100
AcDbLine
 10
16603.343519
 20
6230.04756
 30
0.0
 11
16603.343519
 21
6230.04756
 31
0.0
  0
LINE
  5
6D
100
AcDbEntity
  8
0
 62
     0
100
AcDbLine
 10
16647.782274
 20
6237.675507
 30
0.0
 11
16647.782274
 21
6237.675507
 31
0.0
  0
ENDBLK
  5
6F
100
AcDbEntity
  8
0
100
AcDbBlockEnd
  0
BLOCK
  5
5B
100
AcDbEntity
  8
0
100
AcDbBlockBegin
  2
*X1
 70
     1
 10
0.0
 20
0.0
 30
0.0
  3
*X1
  1
*U
  0
LINE
  5
46
100
AcDbEntity
  8
0
 62
     0
100
AcDbLine
 10
15332.806919
 20
-44932.488472
 30
0.0
 11
15336.48045
 21
-44928.110528
 31
0.0
  0
LINE
  5
47
100
AcDbEntity
  8
0
 62
     0
100
AcDbLine
 10
15387.46232
 20
-44937.270198
 30
0.0
 11
15391.135851
 21
-44932.892254
 31
0.0
  0
LINE
  5
48
100
AcDbEntity
  8
0
 62
     0
100
AcDbLine
 10
15332.645939
 20
-44932.439844
 30
0.0
 11
15337.200541
 21
-44932.83832
 31
0.0
  0
LINE
  5
49
100
AcDbEntity
  8
0
 62
     0
100
AcDbLine
 10
15387.301165
 20
-44937.221557
 30
0.0
 11
15391.855767
 21
-44937.620033
 31
0.0
  0
LINE
  5
4A
100
AcDbEntity
  8
0
 62
     0
100
AcDbLine
 10
15336.845432
 20
-44932.963476
 30
0.0
 11
15335.964398
 21
-44928.187052
 31
0.0
  0
LINE
  5
4B
100
AcDbEntity
  8
0
 62
     0
100
AcDbLine
 10
15391.500583
 20
-44937.745562
 30
0.0
 11
15390.61955
 21
-44932.969137
 31
0.0
  0
LINE
  5
4C
100
AcDbEntity
  8
0
 62
     0
100
AcDbLine
 10
15369.245009
 20
-44920.000035
 30
0.0
 11
15371.823382
 21
-44917.312816
 31
0.0
  0
LINE
  5
4D
100
AcDbEntity
  8
0
 62
     0
100
AcDbLine
 10
15376.014761
 20
-44920.954679
 30
0.0
 11
15375.675996
 21
-44918.042668
 31
0.0
  0
LINE
  5
4E
100
AcDbEntity
  8
0
 62
     0
100
AcDbLine
 10
15369.18166
 20
-44919.93344
 30
0.0
 11
15375.958637
 21
-44920.98451
 31
0.0
  0
LINE
  5
4F
100
AcDbEntity
  8
0
 62
     0
100
AcDbLine
 10
15322.466705
 20
-44945.06887
 30
0.0
 11
15327.802117
 21
-44943.020797
 31
0.0
  0
LINE
  5
50
100
AcDbEntity
  8
0
 62
     0
100
AcDbLine
 10
15322.322027
 20
-44944.94511
 30
0.0
 11
15325.8911
 21
-44947.35248
 31
0.0
  0
LINE
  5
51
100
AcDbEntity
  8
0
 62
     0
100
AcDbLine
 10
15326.096306
 20
-44947.402373
 30
0.0
 11
15327.613222
 21
-44942.881536
 31
0.0
  0
LINE
  5
52
100
AcDbEntity
  8
0
 62
     0
100
AcDbLine
 10
15344.436134
 20
-44933.498507
 30
0.0
 11
15344.436134
 21
-44933.498507
 31
0.0
  0
LINE
  5
53
100
AcDbEntity
  8
0
 62
     0
100
AcDbLine
 10
15383.560013
 20
-44928.13322
 30
0.0
 11
15383.560013
 21
-44928.13322
 31
0.0
  0
LINE
  5
54
100
AcDbEntity
  8
0
 62
     0
100
AcDbLine
 10
15324.088939
 20
-44944.577129
 30
0.0
 11
15324.088939
 21
-44944.577129
 31
0.0
  0
LINE
  5
55
100
AcDbEntity
  8
0
 62
     0
100
AcDbLine
 10
15352.948312
 20
-44940.777721
 30
0.0
 11
15352.948312
 21
-44940.777721
 31
0.0
  0
LINE
  5
56
100
AcDbEntity
  8
0
 62
     0
100
AcDbLine
 10
15370.151856
 20
-44934.699774
 30
0.0
 11
15370.151856
 21
-44934.699774
 31
0.0
  0
LINE
  5
57
100
AcDbEntity
  8
0
 62
     0
100
AcDbLine
 10
15329.474678
 20
-44932.981151
 30
0.0
 11
15329.474678
 21
-44932.981151
 31
0.0
  0
LINE
  5
58
100
AcDbEntity
  8
0
 62
     0
100
AcDbLine
 10
15345.541285
 20
-44943.216709
 30
0.0
 11
15345.541285
 21
-44943.216709
 31
0.0
  0
LINE
  5
59
100
AcDbEntity
  8
0
 62
     0
100
AcDbLine
 10
15392.02993
 20
-44924.784981
 30
0.0
 11
15392.02993
 21
-44924.784981
 31
0.0
  0
LINE
  5
5A
100
AcDbEntity
  8
0
 62
     0
100
AcDbLine
 10
15347.591176
 20
-44932.412929
 30
0.0
 11
15347.591176
 21
-44932.412929
 31
0.0
  0
ENDBLK
  5
5C
100
AcDbEntity
  8
0
100
AcDbBlockEnd
  0
BLOCK
  5
3E
100
AcDbEntity
  8
0
100
AcDbBlockBegin
  2
*D2
 70
     1
 10
0.0
 20
0.0
 30
0.0
  3
*D2
  1

  0
LINE
  5
32
100
AcDbEntity
  8
DIMENSIONS
 62
     0
100
AcDbLine
 10
294.299662
 20
243.575265
 30
0.0
 11
294.299662
 21
267.095719
 31
0.0
1001
ACAD
1000
RTLwPs
1070
   158
  0
LINE
  5
33
100
AcDbEntity
  8
DIMENSIONS
 62
     0
100
AcDbLine
 10
169.299662
 20
247.575265
 30
0.0
 11
169.299662
 21
267.095719
 31
0.0
1001
ACAD
1000
RTLwPs
1070
   158
  0
LINE
  5
34
100
AcDbEntity
  8
DIMENSIONS
 62
     0
100
AcDbLine
 10
284.299662
 20
259.595719
 30
0.0
 11
179.299662
 21
259.595719
 31
0.0
1001
ACAD
1000
RTLwPs
1070
   158
  0
SOLID
  5
35
100
AcDbEntity
  8
DIMENSIONS
 62
     0
100
AcDbTrace
 10
284.299662
 20
261.262385
 30
0.0
 11
284.299662
 21
257.929052
 31
0.0
 12
294.299662
 22
259.595719
 32
0.0
 13
294.299662
 23
259.595719
 33
0.0
  0
SOLID
  5
36
100
AcDbEntity
  8
DIMENSIONS
 62
     0
100
AcDbTrace
 10
179.299662
 20
261.262385
 30
0.0
 11
179.299662
 21
257.929052
 31
0.0
 12
169.299662
 22
259.595719
 32
0.0
 13
169.299662
 23
259.595719
 33
0.0
  0
MTEXT
  5
37
100
AcDbEntity
  8
DIMENSIONS
 62
     0
100
AcDbMText
 10
231.799662
 20
269.095719
 30
0.0
 40
9.0
 41
0.0
 71
     5
 72
     1
  1
\A1;125 MIN
1001
ACAD
1000
MTEXTBEGIN
1070
    73
1070
     1
1070
    44
1040
1.0
1070
    74
1070
     0
1000
MTEXTEND
  0
POINT
  5
38
100
AcDbEntity
  8
DEFPOINTS
 62
     0
100
AcDbPoint
 10
294.299662
 20
221.075265
 30
0.0
  0
POINT
  5
3C
100
AcDbEntity
  8
DEFPOINTS
 62
     0
100
AcDbPoint
 10
169.299662
 20
225.075265
 30
0.0
  0
POINT
  5
3D
100
AcDbEntity
  8
DEFPOINTS
 62
     0
100
AcDbPoint
 10
169.299662
 20
259.595719
 30
0.0
  0
ENDBLK
  5
3F
100
AcDbEntity
  8
0
100
AcDbBlockEnd
  0
ENDSEC
  0
SECTION
  2
ENTITIES
  0
DIMENSION
  5
2F
100
AcDbEntity
  8
DIMENSIONS
100
AcDbDimension
  2
*D2
 10
169.299662
 20
259.595719
 30
0.0
 11
231.799662
 21
269.095719
 31
0.0
  1
125 MIN
  3
1-5
100
AcDbAlignedDimension
 13
294.299662
 23
221.075265
 33
0.0
 14
169.299662
 24
225.075265
 34
0.0
100
AcDbRotatedDimension
  0
LINE
  5
40
100
AcDbEntity
  8
DANCON
 62
     1
100
AcDbLine
 10
71.571029
 20
195.80406
 30
0.0
 11
228.617018
 21
195.80406
 31
0.0
  0
LINE
  5
42
100
AcDbEntity
  8
DANCON
 62
     1
100
AcDbLine
 10
71.571029
 20
190.80406
 30
0.0
 11
228.617018
 21
190.80406
 31
0.0
  0
INSERT
  5
43
100
AcDbEntity
  8
HATCH
100
AcDbBlockReference
  2
*X1
 10
15561.988344
 20
45044.603068
 30
0.0
 41
-1.0
1001
ACAD
1000
HATCH
1002
{
1070
    16
1000
AR-CONC
1040
0.3
1040
0.0
1002
}
  0
INSERT
  5
5D
100
AcDbEntity
  8
HATCH
100
AcDbBlockReference
  2
*X0
 10
16817.074102
 20
-6095.786907
 30
0.0
 41
-1.0
1001
ACAD
1000
HATCH
1002
{
1070
    16
1000
AR-CONC
1040
0.3
1040
0.0
1002
}
  0
LINE
  5
70
100
AcDbEntity
  8
DANCON
100
AcDbLine
 10
290.299662
 20
225.075265
 30
0.0
 11
71.571029
 21
225.075265
 31
0.0
  0
LINE
  5
71
100
AcDbEntity
  8
DANCON
  6
CENTER2
 62
     1
100
AcDbLine
 10
205.888461
 20
170.075265
 30
0.0
 11
294.299662
 21
170.075265
 31
0.0
  0
LINE
  5
73
100
AcDbEntity
  8
DANCON
100
AcDbLine
 10
94.299662
 20
96.075265
 30
0.0
 11
289.299662
 21
96.075265
 31
0.0
  0
LINE
  5
74
100
AcDbEntity
  8
DANCON
100
AcDbLine
 10
94.299662
 20
95.075265
 30
0.0
 11
289.299662
 21
95.075265
 31
0.0
  0
INSERT
  5
75
100
AcDbEntity
  8
HATCH
100
AcDbBlockReference
  2
*X1
 10
9191.451191
 20
46762.79703
 30
0.0
 41
-1.0
 50
7.862792
1001
ACAD
1000
HATCH
1002
{
1070
    16
1000
AR-CONC
1040
0.3
1040
0.0
1002
}
  0
LINE
  5
76
100
AcDbEntity
  8
HATCH
100
AcDbLine
 10
169.299662
 20
98.666315
 30
0.0
 11
71.571029
 21
98.666315
 31
0.0
  0
LINE
  5
77
100
AcDbEntity
  8
HATCH
100
AcDbLine
 10
169.299662
 20
134.081953
 30
0.0
 11
71.571029
 21
134.081953
 31
0.0
  0
LINE
  5
78
100
AcDbEntity
  8
HATCH
100
AcDbLine
 10
94.299662
 20
95.075265
 30
0.0
 11
71.571029
 21
95.075265
 31
0.0
  0
LINE
  5
79
100
AcDbEntity
  8
HATCH
100
AcDbLine
 10
169.299662
 20
137.673002
 30
0.0
 11
71.571029
 21
137.673002
 31
0.0
  0
LINE
  5
7A
100
AcDbEntity
  8
DANCON
100
AcDbLine
 10
94.299662
 20
96.075265
 30
0.0
 11
94.299662
 21
95.075265
 31
0.0
  0
LINE
  5
7B
100
AcDbEntity
  8
HATCH
100
AcDbLine
 10
169.299662
 20
95.075265
 30
0.0
 11
169.299662
 21
137.673002
 31
0.0
  0
CIRCLE
  5
7C
100
AcDbEntity
  8
DANCON
 62
     1
100
AcDbCircle
 10
122.94907
 20
186.80406
 30
0.0
 40
4.0
  0
LINE
  5
7D
100
AcDbEntity
  8
DANCON
 62
     1
100
AcDbLine
 10
249.299662
 20
162.575265
 30
0.0
 11
249.299662
 21
145.881176
 31
0.0
  0
LINE
  5
7E
100
AcDbEntity
  8
DANCON
 62
     1
100
AcDbLine
 10
254.299662
 20
162.575265
 30
0.0
 11
254.299662
 21
145.881176
 31
0.0
  0
INSERT
  5
7F
100
AcDbEntity
  8
HATCH
100
AcDbBlockReference
  2
*X0
 10
-1229.696845
 20
-17563.073358
 30
0.0
 41
-1.0
 50
285.691163
1001
ACAD
1000
HATCH
1002
{
1070
    16
1000
AR-CONC
1040
0.3
1040
0.0
1002
}
  0
LINE
  5
80
100
AcDbEntity
  8
DANCON
100
AcDbLine
 10
294.299662
 20
100.075265
 30
0.0
 11
294.299662
 21
158.075265
 31
0.0
  0
LINE
  5
81
100
AcDbEntity
  8
DANCON
100
AcDbLine
 10
293.299662
 20
100.075265
 30
0.0
 11
293.299662
 21
158.075265
 31
0.0
  0
LINE
  5
82
100
AcDbEntity
  8
DANCON
 62
     1
100
AcDbLine
 10
266.299662
 20
103.075265
 30
0.0
 11
266.299662
 21
150.089984
 31
0.0
  0
LINE
  5
83
100
AcDbEntity
  8
DANCON
 62
     1
100
AcDbLine
 10
261.299662
 20
103.075265
 30
0.0
 11
261.299662
 21
150.089984
 31
0.0
  0
ARC
  5
84
100
AcDbEntity
  8
DANCON
 62
     1
100
AcDbCircle
 10
259.299662
 20
103.075265
 30
0.0
 40
7.0
100
AcDbArc
 50
270.0
 51
0.0
  0
ARC
  5
85
100
AcDbEntity
  8
DANCON
 62
     1
100
AcDbCircle
 10
259.299662
 20
103.075265
 30
0.0
 40
2.0
100
AcDbArc
 50
270.0
 51
0.0
  0
LINE
  5
86
100
AcDbEntity
  8
DANCON
 62
     1
100
AcDbLine
 10
241.299662
 20
101.075265
 30
0.0
 11
259.299662
 21
101.075265
 31
0.0
  0
LINE
  5
87
100
AcDbEntity
  8
DANCON
 62
     1
100
AcDbLine
 10
241.299662
 20
96.075265
 30
0.0
 11
259.299662
 21
96.075265
 31
0.0
  0
LINE
  5
88
100
AcDbEntity
  8
DANCON
 62
     1
100
AcDbLine
 10
241.299662
 20
96.075265
 30
0.0
 11
241.299662
 21
101.075265
 31
0.0
  0
ARC
  5
89
100
AcDbEntity
  8
DANCON
 62
     1
100
AcDbCircle
 10
228.617018
 20
145.881176
 30
0.0
 40
25.682643
100
AcDbArc
 50
270.0
 51
0.0
  0
ARC
  5
8A
100
AcDbEntity
  8
DANCON
 62
     1
100
AcDbCircle
 10
228.617018
 20
145.881176
 30
0.0
 40
20.682643
100
AcDbArc
 50
270.0
 51
0.0
  0
LINE
  5
8B
100
AcDbEntity
  8
DANCON
 62
     1
100
AcDbLine
 10
228.617018
 20
125.198533
 30
0.0
 11
211.442848
 21
125.198533
 31
0.0
  0
LINE
  5
8C
100
AcDbEntity
  8
DANCON
 62
     1
100
AcDbLine
 10
228.617018
 20
120.198533
 30
0.0
 11
211.442848
 21
120.198533
 31
0.0
  0
LINE
  5
8D
100
AcDbEntity
  8
DANCON
 62
     1
100
AcDbLine
 10
211.442848
 20
125.198533
 30
0.0
 11
211.442848
 21
120.198533
 31
0.0
  0
ARC
  5
8E
100
AcDbEntity
  8
DANCON
100
AcDbCircle
 10
289.299662
 20
100.075265
 30
0.0
 40
4.0
100
AcDbArc
 50
270.0
 51
0.0
  0
ARC
  5
8F
100
AcDbEntity
  8
DANCON
100
AcDbCircle
 10
289.299662
 20
100.075265
 30
0.0
 40
5.0
100
AcDbArc
 50
270.0
 51
0.0
  0
INSERT
  5
90
100
AcDbEntity
  8
HATCH
100
AcDbBlockReference
  2
*X0
 10
-1225.606889
 20
17875.050592
 30
0.0
 50
254.308837
1001
ACAD
1000
HATCH
1002
{
1070
    16
1000
AR-CONC
1040
0.3
1040
0.0
1002
}
  0
LINE
  5
91
100
AcDbEntity
  8
DANCON
 62
     1
100
AcDbLine
 10
280.107273
 20
216.539731
 30
0.0
 11
266.592555
 21
203.025013
 31
0.0
  0
ARC
  5
92
100
AcDbEntity
  8
DANCON
100
AcDbCircle
 10
270.299662
 20
177.161052
 30
0.0
 40
6.0
100
AcDbArc
 50
0.0
 51
45.0
  0
ARC
  5
93
100
AcDbEntity
  8
DANCON
100
AcDbCircle
 10
282.299662
 20
183.075265
 30
0.0
 40
6.0
100
AcDbArc
 50
90.0
 51
180.0
  0
ARC
  5
94
100
AcDbEntity
  8
DANCON
100
AcDbCircle
 10
270.299662
 20
162.989479
 30
0.0
 40
6.0
100
AcDbArc
 50
315.0
 51
0.0
  0
ARC
  5
95
100
AcDbEntity
  8
DANCON
100
AcDbCircle
 10
282.299662
 20
157.075265
 30
0.0
 40
6.0
100
AcDbArc
 50
180.0
 51
270.0
  0
LINE
  5
96
100
AcDbEntity
  8
DANCON
100
AcDbLine
 10
287.471234
 20
223.903692
 30
0.0
 11
271.203838
 21
207.636296
 31
0.0
  0
LINE
  5
97
100
AcDbEntity
  8
DANCON
100
AcDbLine
 10
288.178341
 20
223.196586
 30
0.0
 11
271.910945
 21
206.929189
 31
0.0
  0
LINE
  5
98
100
AcDbEntity
  8
DANCON
 62
     1
100
AcDbLine
 10
276.57174
 20
220.075265
 30
0.0
 11
263.057021
 21
206.560547
 31
0.0
  0
LINE
  5
99
100
AcDbEntity
  8
DANCON
100
AcDbLine
 10
212.299662
 20
162.575265
 30
0.0
 11
276.299662
 21
162.575265
 31
0.0
  0
LINE
  5
9A
100
AcDbEntity
  8
DANCON
100
AcDbLine
 10
212.299662
 20
177.575265
 30
0.0
 11
276.299662
 21
177.575265
 31
0.0
  0
ARC
  5
9B
100
AcDbEntity
  8
DANCON
 62
     1
100
AcDbCircle
 10
228.617018
 20
170.075265
 30
0.0
 40
25.682643
100
AcDbArc
 50
16.97929
 51
90.0
  0
LINE
  5
9C
100
AcDbEntity
  8
DANCON
 62
     1
100
AcDbLine
 10
261.299662
 20
190.060547
 30
0.0
 11
261.299662
 21
202.317906
 31
0.0
  0
LINE
  5
9D
100
AcDbEntity
  8
DANCON
 62
     1
100
AcDbLine
 10
266.299662
 20
190.060547
 30
0.0
 11
266.299662
 21
202.317906
 31
0.0
  0
ARC
  5
9E
100
AcDbEntity
  8
DANCON
 62
     1
100
AcDbCircle
 10
228.617018
 20
170.075265
 30
0.0
 40
20.682643
100
AcDbArc
 50
21.261365
 51
90.0
  0
LINE
  5
9F
100
AcDbEntity
  8
DANCON
100
AcDbLine
 10
235.968374
 20
171.232072
 30
0.0
 11
235.968374
 21
173.381262
 31
0.0
  0
LINE
  5
A0
100
AcDbEntity
  8
DANCON
100
AcDbLine
 10
236.968374
 20
171.559122
 30
0.0
 11
236.968374
 21
173.568148
 31
0.0
  0
LINE
  5
A1
100
AcDbEntity
  8
DANCON
100
AcDbLine
 10
234.968374
 20
170.157477
 30
0.0
 11
234.968374
 21
171.886173
 31
0.0
  0
LINE
  5
A2
100
AcDbEntity
  8
DANCON
100
AcDbLine
 10
226.922981
 20
171.559122
 30
0.0
 11
226.922981
 21
173.568148
 31
0.0
  0
LINE
  5
A3
100
AcDbEntity
  8
DANCON
100
AcDbLine
 10
225.922981
 20
171.232072
 30
0.0
 11
225.922981
 21
173.381262
 31
0.0
  0
LINE
  5
A4
100
AcDbEntity
  8
DANCON
100
AcDbLine
 10
224.922981
 20
170.157477
 30
0.0
 11
224.922981
 21
171.886173
 31
0.0
  0
LINE
  5
A5
100
AcDbEntity
  8
DANCON
100
AcDbLine
 10
212.299662
 20
162.575265
 30
0.0
 11
212.299662
 21
177.575265
 31
0.0
  0
LINE
  5
A6
100
AcDbEntity
  8
DANCON
100
AcDbLine
 10
225.922981
 20
163.480124
 30
0.0
 11
225.922981
 21
166.279592
 31
0.0
  0
LINE
  5
A7
100
AcDbEntity
  8
DANCON
100
AcDbLine
 10
224.922981
 20
163.480124
 30
0.0
 11
224.922981
 21
163.279212
 31
0.0
  0
LINE
  5
A8
100
AcDbEntity
  8
DANCON
100
AcDbLine
 10
225.922981
 20
166.933692
 30
0.0
 11
225.922981
 21
170.764856
 31
0.0
  0
LINE
  5
A9
100
AcDbEntity
  8
DANCON
100
AcDbLine
 10
224.922981
 20
167.354186
 30
0.0
 11
224.922981
 21
169.550097
 31
0.0
  0
LINE
  5
AA
100
AcDbEntity
  8
DANCON
100
AcDbLine
 10
226.922981
 20
163.480124
 30
0.0
 11
226.922981
 21
166.232869
 31
0.0
  0
LINE
  5
AB
100
AcDbEntity
  8
DANCON
100
AcDbLine
 10
226.922981
 20
167.634515
 30
0.0
 11
226.922981
 21
170.764856
 31
0.0
  0
LINE
  5
AC
100
AcDbEntity
  8
DANCON
100
AcDbLine
 10
236.968374
 20
163.480124
 30
0.0
 11
236.968374
 21
166.232869
 31
0.0
  0
LINE
  5
AD
100
AcDbEntity
  8
DANCON
100
AcDbLine
 10
235.968374
 20
163.480124
 30
0.0
 11
235.968374
 21
166.279592
 31
0.0
  0
LINE
  5
AE
100
AcDbEntity
  8
DANCON
100
AcDbLine
 10
234.968374
 20
163.480124
 30
0.0
 11
234.968374
 21
163.279212
 31
0.0
  0
LINE
  5
AF
100
AcDbEntity
  8
DANCON
100
AcDbLine
 10
235.968374
 20
166.933692
 30
0.0
 11
235.968374
 21
170.764856
 31
0.0
  0
LINE
  5
B0
100
AcDbEntity
  8
DANCON
100
AcDbLine
 10
234.968374
 20
167.354186
 30
0.0
 11
234.968374
 21
169.550097
 31
0.0
  0
LINE
  5
B1
100
AcDbEntity
  8
DANCON
100
AcDbLine
 10
236.968374
 20
167.634515
 30
0.0
 11
236.968374
 21
170.764856
 31
0.0
  0
CIRCLE
  5
B2
100
AcDbEntity
  8
DANCON
 62
     1
100
AcDbCircle
 10
230.202744
 20
186.80406
 30
0.0
 40
4.0
  0
LINE
  5
B3
100
AcDbEntity
  8
DANCON
100
AcDbLine
 10
225.922981
 20
176.082084
 30
0.0
 11
225.922981
 21
176.419055
 31
0.0
  0
LINE
  5
B4
100
AcDbEntity
  8
DANCON
100
AcDbLine
 10
224.922981
 20
176.923071
 30
0.0
 11
224.922981
 21
176.419055
 31
0.0
  0
LINE
  5
B5
100
AcDbEntity
  8
DANCON
100
AcDbLine
 10
224.922981
 20
172.540274
 30
0.0
 11
224.922981
 21
176.082084
 31
0.0
  0
LINE
  5
B6
100
AcDbEntity
  8
DANCON
100
AcDbLine
 10
226.922981
 20
176.26897
 30
0.0
 11
226.922981
 21
176.419055
 31
0.0
  0
LINE
  5
B7
100
AcDbEntity
  8
DANCON
100
AcDbLine
 10
236.968374
 20
176.26897
 30
0.0
 11
236.968374
 21
176.419055
 31
0.0
  0
LINE
  5
B8
100
AcDbEntity
  8
DANCON
100
AcDbLine
 10
235.968374
 20
176.082084
 30
0.0
 11
235.968374
 21
176.419055
 31
0.0
  0
LINE
  5
B9
100
AcDbEntity
  8
DANCON
100
AcDbLine
 10
234.968374
 20
176.923071
 30
0.0
 11
234.968374
 21
176.419055
 31
0.0
  0
LINE
  5
BA
100
AcDbEntity
  8
DANCON
100
AcDbLine
 10
234.968374
 20
172.540274
 30
0.0
 11
234.968374
 21
176.082084
 31
0.0
  0
LINE
  5
BB
100
AcDbEntity
  8
DANCON
100
AcDbLine
 10
265.104556
 20
170.157477
 30
0.0
 11
265.104556
 21
171.886173
 31
0.0
  0
LINE
  5
BC
100
AcDbEntity
  8
DANCON
100
AcDbLine
 10
266.104556
 20
171.232072
 30
0.0
 11
266.104556
 21
173.381262
 31
0.0
  0
LINE
  5
BD
100
AcDbEntity
  8
DANCON
100
AcDbLine
 10
267.104556
 20
171.559122
 30
0.0
 11
267.104556
 21
173.568148
 31
0.0
  0
LINE
  5
BE
100
AcDbEntity
  8
DANCON
100
AcDbLine
 10
257.059162
 20
171.559122
 30
0.0
 11
257.059162
 21
173.568148
 31
0.0
  0
LINE
  5
BF
100
AcDbEntity
  8
DANCON
100
AcDbLine
 10
256.059162
 20
171.232072
 30
0.0
 11
256.059162
 21
173.381262
 31
0.0
  0
LINE
  5
C0
100
AcDbEntity
  8
DANCON
100
AcDbLine
 10
255.059162
 20
170.157477
 30
0.0
 11
255.059162
 21
171.886173
 31
0.0
  0
LINE
  5
C1
100
AcDbEntity
  8
DANCON
100
AcDbLine
 10
247.013768
 20
171.559122
 30
0.0
 11
247.013768
 21
173.568148
 31
0.0
  0
LINE
  5
C2
100
AcDbEntity
  8
DANCON
100
AcDbLine
 10
246.013768
 20
171.232072
 30
0.0
 11
246.013768
 21
173.381262
 31
0.0
  0
LINE
  5
C3
100
AcDbEntity
  8
DANCON
100
AcDbLine
 10
245.013768
 20
170.157477
 30
0.0
 11
245.013768
 21
171.886173
 31
0.0
  0
LINE
  5
C4
100
AcDbEntity
  8
DANCON
100
AcDbLine
 10
246.013768
 20
163.480124
 30
0.0
 11
246.013768
 21
166.279592
 31
0.0
  0
LINE
  5
C5
100
AcDbEntity
  8
DANCON
100
AcDbLine
 10
247.013768
 20
163.480124
 30
0.0
 11
247.013768
 21
166.232869
 31
0.0
  0
LINE
  5
C6
100
AcDbEntity
  8
DANCON
100
AcDbLine
 10
245.013768
 20
163.480124
 30
0.0
 11
245.013768
 21
163.279212
 31
0.0
  0
LINE
  5
C7
100
AcDbEntity
  8
DANCON
100
AcDbLine
 10
246.013768
 20
166.933692
 30
0.0
 11
246.013768
 21
170.764856
 31
0.0
  0
LINE
  5
C8
100
AcDbEntity
  8
DANCON
100
AcDbLine
 10
245.013768
 20
167.354186
 30
0.0
 11
245.013768
 21
169.550097
 31
0.0
  0
LINE
  5
C9
100
AcDbEntity
  8
DANCON
100
AcDbLine
 10
247.013768
 20
167.634515
 30
0.0
 11
247.013768
 21
170.764856
 31
0.0
  0
LINE
  5
CA
100
AcDbEntity
  8
DANCON
100
AcDbLine
 10
257.059162
 20
163.480124
 30
0.0
 11
257.059162
 21
166.232869
 31
0.0
  0
LINE
  5
CB
100
AcDbEntity
  8
DANCON
100
AcDbLine
 10
256.059162
 20
163.480124
 30
0.0
 11
256.059162
 21
166.279592
 31
0.0
  0
LINE
  5
CC
100
AcDbEntity
  8
DANCON
100
AcDbLine
 10
255.059162
 20
163.480124
 30
0.0
 11
255.059162
 21
163.279212
 31
0.0
  0
LINE
  5
CD
100
AcDbEntity
  8
DANCON
100
AcDbLine
 10
255.059162
 20
167.354186
 30
0.0
 11
255.059162
 21
169.550097
 31
0.0
  0
LINE
  5
CE
100
AcDbEntity
  8
DANCON
100
AcDbLine
 10
256.059162
 20
166.933692
 30
0.0
 11
256.059162
 21
170.764856
 31
0.0
  0
LINE
  5
CF
100
AcDbEntity
  8
DANCON
100
AcDbLine
 10
257.059162
 20
167.634515
 30
0.0
 11
257.059162
 21
170.764856
 31
0.0
  0
LINE
  5
D0
100
AcDbEntity
  8
DANCON
 62
     1
100
AcDbLine
 10
271.006768
 20
162.282372
 30
0.0
 11
263.057021
 21
154.332625
 31
0.0
  0
LINE
  5
D1
100
AcDbEntity
  8
DANCON
 62
     1
100
AcDbLine
 10
274.542302
 20
158.746838
 30
0.0
 11
266.592555
 21
150.797091
 31
0.0
  0
ARC
  5
D2
100
AcDbEntity
  8
DANCON
 62
     1
100
AcDbCircle
 10
267.299662
 20
150.089984
 30
0.0
 40
6.0
100
AcDbArc
 50
135.0
 51
180.0
  0
ARC
  5
D3
100
AcDbEntity
  8
DANCON
 62
     1
100
AcDbCircle
 10
267.299662
 20
150.089984
 30
0.0
 40
1.0
100
AcDbArc
 50
135.0
 51
180.0
  0
LINE
  5
D4
100
AcDbEntity
  8
DANCON
100
AcDbLine
 10
266.104556
 20
163.480124
 30
0.0
 11
266.104556
 21
166.279592
 31
0.0
  0
LINE
  5
D5
100
AcDbEntity
  8
DANCON
100
AcDbLine
 10
267.104556
 20
163.480124
 30
0.0
 11
267.104556
 21
166.232869
 31
0.0
  0
LINE
  5
D6
100
AcDbEntity
  8
DANCON
100
AcDbLine
 10
265.104556
 20
163.480124
 30
0.0
 11
265.104556
 21
163.279212
 31
0.0
  0
LINE
  5
D7
100
AcDbEntity
  8
DANCON
100
AcDbLine
 10
265.104556
 20
167.354186
 30
0.0
 11
265.104556
 21
169.550097
 31
0.0
  0
LINE
  5
D8
100
AcDbEntity
  8
DANCON
100
AcDbLine
 10
266.104556
 20
166.933692
 30
0.0
 11
266.104556
 21
170.764856
 31
0.0
  0
LINE
  5
D9
100
AcDbEntity
  8
DANCON
100
AcDbLine
 10
267.104556
 20
167.634515
 30
0.0
 11
267.104556
 21
170.764856
 31
0.0
  0
ARC
  5
DA
100
AcDbEntity
  8
DANCON
100
AcDbCircle
 10
270.299662
 20
162.989479
 30
0.0
 40
1.0
100
AcDbArc
 50
315.0
 51
335.530199
  0
LINE
  5
DB
100
AcDbEntity
  8
DANCON
100
AcDbLine
 10
246.013768
 20
176.082084
 30
0.0
 11
246.013768
 21
176.419055
 31
0.0
  0
LINE
  5
DC
100
AcDbEntity
  8
DANCON
100
AcDbLine
 10
245.013768
 20
176.923071
 30
0.0
 11
245.013768
 21
176.419055
 31
0.0
  0
LINE
  5
DD
100
AcDbEntity
  8
DANCON
100
AcDbLine
 10
245.013768
 20
172.540274
 30
0.0
 11
245.013768
 21
176.082084
 31
0.0
  0
LINE
  5
DE
100
AcDbEntity
  8
DANCON
100
AcDbLine
 10
247.013768
 20
176.26897
 30
0.0
 11
247.013768
 21
176.419055
 31
0.0
  0
LINE
  5
DF
100
AcDbEntity
  8
DANCON
100
AcDbLine
 10
255.059162
 20
176.923071
 30
0.0
 11
255.059162
 21
176.419055
 31
0.0
  0
LINE
  5
E0
100
AcDbEntity
  8
DANCON
100
AcDbLine
 10
255.059162
 20
172.540274
 30
0.0
 11
255.059162
 21
176.082084
 31
0.0
  0
LINE
  5
E1
100
AcDbEntity
  8
DANCON
100
AcDbLine
 10
257.059162
 20
176.26897
 30
0.0
 11
257.059162
 21
176.419055
 31
0.0
  0
LINE
  5
E2
100
AcDbEntity
  8
DANCON
100
AcDbLine
 10
256.059162
 20
176.082084
 30
0.0
 11
256.059162
 21
176.419055
 31
0.0
  0
LINE
  5
E3
100
AcDbEntity
  8
DANCON
 62
     1
100
AcDbLine
 10
271.006768
 20
177.868159
 30
0.0
 11
263.057021
 21
185.817906
 31
0.0
  0
LINE
  5
E4
100
AcDbEntity
  8
DANCON
 62
     1
100
AcDbLine
 10
274.542302
 20
181.403692
 30
0.0
 11
266.592555
 21
189.35344
 31
0.0
  0
LINE
  5
E5
100
AcDbEntity
  8
DANCON
100
AcDbLine
 10
265.104556
 20
176.923071
 30
0.0
 11
265.104556
 21
176.419055
 31
0.0
  0
LINE
  5
E6
100
AcDbEntity
  8
DANCON
100
AcDbLine
 10
266.104556
 20
176.082084
 30
0.0
 11
266.104556
 21
176.419055
 31
0.0
  0
LINE
  5
E7
100
AcDbEntity
  8
DANCON
100
AcDbLine
 10
267.104556
 20
176.26897
 30
0.0
 11
267.104556
 21
176.419055
 31
0.0
  0
LINE
  5
E8
100
AcDbEntity
  8
DANCON
100
AcDbLine
 10
265.104556
 20
172.540274
 30
0.0
 11
265.104556
 21
176.082084
 31
0.0
  0
ARC
  5
E9
100
AcDbEntity
  8
DANCON
100
AcDbCircle
 10
270.299662
 20
177.161052
 30
0.0
 40
1.0
100
AcDbArc
 50
24.469801
 51
45.0
  0
ARC
  5
EA
100
AcDbEntity
  8
DANCON
 62
     1
100
AcDbCircle
 10
267.299662
 20
190.060547
 30
0.0
 40
6.0
100
AcDbArc
 50
180.0
 51
225.0
  0
ARC
  5
EB
100
AcDbEntity
  8
DANCON
 62
     1
100
AcDbCircle
 10
267.299662
 20
190.060547
 30
0.0
 40
1.0
100
AcDbArc
 50
180.0
 51
225.0
  0
ARC
  5
EC
100
AcDbEntity
  8
DANCON
 62
     1
100
AcDbCircle
 10
267.299662
 20
202.317906
 30
0.0
 40
6.0
100
AcDbArc
 50
135.0
 51
180.0
  0
ARC
  5
ED
100
AcDbEntity
  8
DANCON
 62
     1
100
AcDbCircle
 10
267.299662
 20
202.317906
 30
0.0
 40
1.0
100
AcDbArc
 50
135.0
 51
180.0
  0
LINE
  5
EE
100
AcDbEntity
  8
DANCON
100
AcDbLine
 10
271.203838
 20
207.636296
 30
0.0
 11
271.910945
 21
206.929189
 31
0.0
  0
LINE
  5
EF
100
AcDbEntity
  8
DANCON
100
AcDbLine
 10
293.299662
 20
182.075265
 30
0.0
 11
293.299662
 21
221.075265
 31
0.0
  0
LINE
  5
F0
100
AcDbEntity
  8
DANCON
100
AcDbLine
 10
294.299662
 20
182.075265
 30
0.0
 11
294.299662
 21
221.075265
 31
0.0
  0
LINE
  5
F1
100
AcDbEntity
  8
DANCON
100
AcDbLine
 10
290.299662
 20
179.075265
 30
0.0
 11
290.299662
 21
161.075265
 31
0.0
  0
LINE
  5
F2
100
AcDbEntity
  8
DANCON
100
AcDbLine
 10
282.299662
 20
186.075265
 30
0.0
 11
282.299662
 21
154.075265
 31
0.0
  0
LINE
  5
F3
100
AcDbEntity
  8
DANCON
100
AcDbLine
 10
276.299662
 20
157.075265
 30
0.0
 11
276.299662
 21
183.075265
 31
0.0
  0
LINE
  5
F4
100
AcDbEntity
  8
DANCON
100
AcDbLine
 10
279.299662
 20
157.075265
 30
0.0
 11
279.299662
 21
183.075265
 31
0.0
  0
LINE
  5
F5
100
AcDbEntity
  8
DANCON
100
AcDbLine
 10
279.299662
 20
162.575265
 30
0.0
 11
279.299662
 21
177.575265
 31
0.0
  0
LINE
  5
F6
100
AcDbEntity
  8
DANCON
100
AcDbLine
 10
276.299662
 20
162.877456
 30
0.0
 11
276.299662
 21
177.161052
 31
0.0
  0
LINE
  5
F7
100
AcDbEntity
  8
DANCON
100
AcDbLine
 10
290.299662
 20
165.075265
 30
0.0
 11
294.299662
 21
165.075265
 31
0.0
  0
LINE
  5
F8
100
AcDbEntity
  8
DANCON
100
AcDbLine
 10
290.299662
 20
164.075265
 30
0.0
 11
294.299662
 21
164.075265
 31
0.0
  0
LINE
  5
F9
100
AcDbEntity
  8
DANCON
100
AcDbLine
 10
293.299662
 20
161.075265
 30
0.0
 11
290.299662
 21
161.075265
 31
0.0
  0
ARC
  5
FA
100
AcDbEntity
  8
DANCON
100
AcDbCircle
 10
288.299662
 20
156.075265
 30
0.0
 40
5.0
100
AcDbArc
 50
270.0
 51
0.0
  0
LINE
  5
FB
100
AcDbEntity
  8
DANCON
100
AcDbLine
 10
290.299662
 20
156.075265
 30
0.0
 11
290.299662
 21
161.075265
 31
0.0
  0
LINE
  5
FC
100
AcDbEntity
  8
DANCON
100
AcDbLine
 10
288.299662
 20
151.075265
 30
0.0
 11
282.299662
 21
151.075265
 31
0.0
  0
LINE
  5
FD
100
AcDbEntity
  8
DANCON
100
AcDbLine
 10
288.299662
 20
154.075265
 30
0.0
 11
282.299662
 21
154.075265
 31
0.0
  0
ARC
  5
FE
100
AcDbEntity
  8
DANCON
100
AcDbCircle
 10
282.299662
 20
157.075265
 30
0.0
 40
3.0
100
AcDbArc
 50
180.0
 51
270.0
  0
ARC
  5
FF
100
AcDbEntity
  8
DANCON
100
AcDbCircle
 10
288.299662
 20
156.075265
 30
0.0
 40
2.0
100
AcDbArc
 50
270.0
 51
0.0
  0
LINE
  5
100
100
AcDbEntity
  8
DANCON
100
AcDbLine
 10
293.299662
 20
156.075265
 30
0.0
 11
293.299662
 21
161.075265
 31
0.0
  0
LINE
  5
101
100
AcDbEntity
  8
DANCON
100
AcDbLine
 10
293.299662
 20
158.075265
 30
0.0
 11
294.299662
 21
158.075265
 31
0.0
  0
LINE
  5
102
100
AcDbEntity
  8
DANCON
100
AcDbLine
 10
293.299662
 20
159.075265
 30
0.0
 11
294.299662
 21
158.075265
 31
0.0
  0
SOLID
  5
103
100
AcDbEntity
  8
DANCON
100
AcDbTrace
 10
293.299662
 20
158.075265
 30
0.0
 11
293.299662
 21
159.075265
 31
0.0
 12
294.299662
 22
158.075265
 32
0.0
 13
294.299662
 23
158.075265
 33
0.0
  0
LINE
  5
104
100
AcDbEntity
  8
DANCON
100
AcDbLine
 10
290.299662
 20
175.075265
 30
0.0
 11
294.299662
 21
175.075265
 31
0.0
  0
LINE
  5
105
100
AcDbEntity
  8
DANCON
100
AcDbLine
 10
290.299662
 20
176.075265
 30
0.0
 11
294.299662
 21
176.075265
 31
0.0
  0
LINE
  5
106
100
AcDbEntity
  8
DANCON
100
AcDbLine
 10
293.299662
 20
179.075265
 30
0.0
 11
290.299662
 21
179.075265
 31
0.0
  0
ARC
  5
107
100
AcDbEntity
  8
DANCON
100
AcDbCircle
 10
288.299662
 20
184.075265
 30
0.0
 40
5.0
100
AcDbArc
 50
0.0
 51
90.0
  0
LINE
  5
108
100
AcDbEntity
  8
DANCON
100
AcDbLine
 10
290.299662
 20
179.075265
 30
0.0
 11
290.299662
 21
184.075265
 31
0.0
  0
ARC
  5
109
100
AcDbEntity
  8
DANCON
100
AcDbCircle
 10
282.299662
 20
183.075265
 30
0.0
 40
3.0
100
AcDbArc
 50
90.0
 51
180.0
  0
LINE
  5
10A
100
AcDbEntity
  8
DANCON
100
AcDbLine
 10
288.299662
 20
189.075265
 30
0.0
 11
282.299662
 21
189.075265
 31
0.0
  0
LINE
  5
10B
100
AcDbEntity
  8
DANCON
100
AcDbLine
 10
288.299662
 20
186.075265
 30
0.0
 11
282.299662
 21
186.075265
 31
0.0
  0
ARC
  5
10C
100
AcDbEntity
  8
DANCON
100
AcDbCircle
 10
288.299662
 20
184.075265
 30
0.0
 40
2.0
100
AcDbArc
 50
0.0
 51
90.0
  0
LINE
  5
10D
100
AcDbEntity
  8
DANCON
100
AcDbLine
 10
293.299662
 20
179.075265
 30
0.0
 11
293.299662
 21
184.075265
 31
0.0
  0
LINE
  5
10E
100
AcDbEntity
  8
DANCON
100
AcDbLine
 10
293.299662
 20
182.075265
 30
0.0
 11
294.299662
 21
182.075265
 31
0.0
  0
LINE
  5
10F
100
AcDbEntity
  8
DANCON
100
AcDbLine
 10
294.299662
 20
182.075265
 30
0.0
 11
293.299662
 21
181.075265
 31
0.0
  0
SOLID
  5
110
100
AcDbEntity
  8
DANCON
100
AcDbTrace
 10
293.299662
 20
181.075265
 30
0.0
 11
293.299662
 21
182.075265
 31
0.0
 12
294.299662
 22
182.075265
 32
0.0
 13
294.299662
 23
182.075265
 33
0.0
  0
LINE
  5
111
100
AcDbEntity
  8
DANCON
 62
     1
100
AcDbLine
 10
276.57174
 20
220.075265
 30
0.0
 11
280.107273
 21
216.539731
 31
0.0
  0
ARC
  5
112
100
AcDbEntity
  8
DANCON
100
AcDbCircle
 10
290.299662
 20
221.075265
 30
0.0
 40
4.0
100
AcDbArc
 50
0.0
 51
135.0
  0
ARC
  5
113
100
AcDbEntity
  8
DANCON
100
AcDbCircle
 10
290.299662
 20
221.075265
 30
0.0
 40
3.0
100
AcDbArc
 50
0.0
 51
135.0
  0
ENDSEC
  0
SECTION
  2
OBJECTS
  0
DICTIONARY
  5
2A
100
AcDbDictionary
  3
ACAD_GROUP
350
26
  3
ACAD_MLINESTYLE
350
27
  0
DICTIONARY
  5
19
100
AcDbDictionary
280
     1
  3
ACAD_XREC_ROUNDTRIP
360
1A
  0
DICTIONARY
  5
1C
100
AcDbDictionary
280
     1
  3
ACAD_XREC_ROUNDTRIP
360
1D
  0
DICTIONARY
  5
9
100
AcDbDictionary
280
     1
  3
ACAD_XREC_ROUNDTRIP
360
A
  0
DICTIONARY
  5
3A
100
AcDbDictionary
280
     1
  3
ACAD_XREC_ROUNDTRIP
360
3B
  0
DICTIONARY
  5
15
100
AcDbDictionary
280
     1
  3
ACAD_XREC_ROUNDTRIP
360
16
  0
DICTIONARY
  5
2D
100
AcDbDictionary
280
     1
  3
ACAD_XREC_ROUNDTRIP
360
2E
  0
DICTIONARY
  5
3
100
AcDbDictionary
280
     1
  3
ACAD_LAYOUTSELFREF
360
4
  3
ACAD_XREC_ROUNDTRIP
360
5
  0
DICTIONARY
  5
D
100
AcDbDictionary
280
     1
  3
ACAD_LAYOUTSELFREF
360
E
  3
ACAD_XREC_ROUNDTRIP
360
F
  0
DICTIONARY
  5
26
102
{ACAD_REACTORS
330
2A
102
}
100
AcDbDictionary
  0
DICTIONARY
  5
27
102
{ACAD_XDICTIONARY
360
28
102
}
102
{ACAD_REACTORS
330
2A
102
}
100
AcDbDictionary
  3
STANDARD
350
2B
  0
XRECORD
  5
1A
102
{ACAD_REACTORS
330
19
102
}
100
AcDbXrecord
102
EXTNAMES
  1
BYBLOCK
  2
ByBlock
  0
XRECORD
  5
1D
102
{ACAD_REACTORS
330
1C
102
}
100
AcDbXrecord
102
EXTNAMES
  1
BYLAYER
  2
ByLayer
  0
XRECORD
  5
A
102
{ACAD_REACTORS
330
9
102
}
100
AcDbXrecord
102
EXTNAMES
  1
CONTINUOUS
  2
Continuous
  0
XRECORD
  5
3B
102
{ACAD_REACTORS
330
3A
102
}
100
AcDbXrecord
102
PLOTBIT
280
     0
  0
XRECORD
  5
16
102
{ACAD_REACTORS
330
15
102
}
100
AcDbXrecord
102
EXTNAMES
  1
STANDARD
  2
Standard
  0
XRECORD
  5
2E
102
{ACAD_REACTORS
330
2D
102
}
100
AcDbXrecord
102
ACADR14ROUNDTRIP
1000
DSTYLE
1002
{
1070
   279
 70
     2
1002
}
  0
XRECORD
  5
4
102
{ACAD_REACTORS
330
3
102
}
100
AcDbXrecord
340
2
  0
XRECORD
  5
5
102
{ACAD_REACTORS
330
3
102
}
100
AcDbXrecord
102
EXTNAMES
  1
*MODEL_SPACE
  2
*Model_Space
  0
XRECORD
  5
E
102
{ACAD_REACTORS
330
D
102
}
100
AcDbXrecord
340
C
  0
XRECORD
  5
F
102
{ACAD_REACTORS
330
D
102
}
100
AcDbXrecord
102
EXTNAMES
  1
*PAPER_SPACE
  2
*Paper_Space
  0
DICTIONARY
  5
28
100
AcDbDictionary
280
     1
  3
ACAD_XREC_ROUNDTRIP
360
29
  0
MLINESTYLE
  5
2B
102
{ACAD_REACTORS
330
27
102
}
100
AcDbMlineStyle
  2
STANDARD
 70
     0
  3

 62
   256
 51
90.0
 52
90.0
 71
     2
 49
0.5
 62
   256
  6
BYLAYER
 49
-0.5
 62
   256
  6
BYLAYER
  0
XRECORD
  5
29
102
{ACAD_REACTORS
330
28
102
}
100
AcDbXrecord
102
EXTNAMES
  1
STANDARD
  2
Standard
  0
ENDSEC
  0
EOF
