  0
SECTION
  2
HEADER
  9
$ACADVER
  1
AC1015
  9
$ACADMAINTVER
 70
    10
  9
$DWGCODEPAGE
  3
ANSI_1252
  9
$INSBASE
 10
0.0
 20
0.0
 30
0.0
  9
$EXTMIN
 10
-432.8921285419557
 20
-126.059236015291
 30
0.0
  9
$EXTMAX
 10
816.2202199670003
 20
365.0
 30
0.0
  9
$LIMMIN
 10
0.0
 20
0.0
  9
$LIMMAX
 10
420.0
 20
297.0
  9
$ORTHOMODE
 70
     1
  9
$REGENMODE
 70
     1
  9
$FILLMODE
 70
     1
  9
$QTEXTMODE
 70
     0
  9
$MIRRTEXT
 70
     1
  9
$LTSCALE
 40
1.0
  9
$ATTMODE
 70
     1
  9
$TEXTSIZE
 40
9.0
  9
$TRACEWID
 40
10.0
  9
$TEXTSTYLE
  7
ROMANS
  9
$CLAYER
  8
ANCON-SUPPORT
  9
$CELTYPE
  6
BYLAYER
  9
$CECOLOR
 62
   256
  9
$CELTSCALE
 40
1.0
  9
$DISPSILH
 70
     0
  9
$DIMSCALE
 40
5.0
  9
$DIMASZ
 40
0.0
  9
$DIMEXO
 40
4.5
  9
$DIMDLI
 40
0.0
  9
$DIMRND
 40
1.0
  9
$DIMDLE
 40
1.25
  9
$DIMEXE
 40
1.5
  9
$DIMTP
 40
0.0
  9
$DIMTM
 40
0.0
  9
$DIMTXT
 40
1.8
  9
$DIMCEN
 40
0.0
  9
$DIMTSZ
 40
1.0
  9
$DIMTOL
 70
     0
  9
$DIMLIM
 70
     0
  9
$DIMTIH
 70
     0
  9
$DIMTOH
 70
     0
  9
$DIMSE1
 70
     0
  9
$DIMSE2
 70
     0
  9
$DIMTAD
 70
     1
  9
$DIMZIN
 70
    12
  9
$DIMBLK
  1

  9
$DIMASO
 70
     1
  9
$DIMSHO
 70
     0
  9
$DIMPOST
  1

  9
$DIMAPOST
  1

  9
$DIMALT
 70
     0
  9
$DIMALTD
 70
     2
  9
$DIMALTF
 40
0.04
  9
$DIMLFAC
 40
1.0
  9
$DIMTOFL
 70
     0
  9
$DIMTVP
 40
0.0
  9
$DIMTIX
 70
     0
  9
$DIMSOXD
 70
     0
  9
$DIMSAH
 70
     0
  9
$DIMBLK1
  1

  9
$DIMBLK2
  1

  9
$DIMSTYLE
  2
1-5
  9
$DIMCLRD
 70
     0
  9
$DIMCLRE
 70
     0
  9
$DIMCLRT
 70
     0
  9
$DIMTFAC
 40
1.25
  9
$DIMGAP
 40
0.1
  9
$DIMJUST
 70
     0
  9
$DIMSD1
 70
     0
  9
$DIMSD2
 70
     0
  9
$DIMTOLJ
 70
     1
  9
$DIMTZIN
 70
    12
  9
$DIMALTZ
 70
    12
  9
$DIMALTTZ
 70
    12
  9
$DIMUPT
 70
     0
  9
$DIMDEC
 70
     2
  9
$DIMTDEC
 70
     2
  9
$DIMALTU
 70
     2
  9
$DIMALTTD
 70
     2
  9
$DIMTXSTY
  7
ROMANS
  9
$DIMAUNIT
 70
     0
  9
$DIMADEC
 70
     0
  9
$DIMALTRND
 40
0.0
  9
$DIMAZIN
 70
     0
  9
$DIMDSEP
 70
    46
  9
$DIMATFIT
 70
     3
  9
$DIMFRAC
 70
     0
  9
$DIMLDRBLK
  1

  9
$DIMLUNIT
 70
     2
  9
$DIMLWD
 70
    -2
  9
$DIMLWE
 70
    -2
  9
$DIMTMOVE
 70
     2
  9
$LUNITS
 70
     2
  9
$LUPREC
 70
     2
  9
$SKETCHINC
 40
1.0
  9
$FILLETRAD
 40
4.0
  9
$AUNITS
 70
     0
  9
$AUPREC
 70
     4
  9
$MENU
  1
C:\ACADWIN\SUPPORT\ACAD
  9
$ELEVATION
 40
0.0
  9
$PELEVATION
 40
0.0
  9
$THICKNESS
 40
0.0
  9
$LIMCHECK
 70
     0
  9
$CHAMFERA
 40
0.0
  9
$CHAMFERB
 40
0.0
  9
$CHAMFERC
 40
0.0
  9
$CHAMFERD
 40
0.0
  9
$SKPOLY
 70
     0
  9
$TDCREATE
 40
2450427.482995949
  9
$TDUCREATE
 40
2450427.441329282
  9
$TDUPDATE
 40
2452486.856095139
  9
$TDUUPDATE
 40
2452486.814428472
  9
$TDINDWG
 40
0.0931476852
  9
$TDUSRTIMER
 40
0.0931476852
  9
$USRTIMER
 70
     1
  9
$ANGBASE
 50
0.0
  9
$ANGDIR
 70
     0
  9
$PDMODE
 70
     0
  9
$PDSIZE
 40
0.0
  9
$PLINEWID
 40
0.0
  9
$SPLFRAME
 70
     0
  9
$SPLINETYPE
 70
     6
  9
$SPLINESEGS
 70
     8
  9
$HANDSEED
  5
23E
  9
$SURFTAB1
 70
    18
  9
$SURFTAB2
 70
    18
  9
$SURFTYPE
 70
     6
  9
$SURFU
 70
    18
  9
$SURFV
 70
    18
  9
$UCSBASE
  2

  9
$UCSNAME
  2

  9
$UCSORG
 10
0.0
 20
0.0
 30
0.0
  9
$UCSXDIR
 10
1.0
 20
0.0
 30
0.0
  9
$UCSYDIR
 10
0.0
 20
1.0
 30
0.0
  9
$UCSORTHOREF
  2

  9
$UCSORTHOVIEW
 70
     0
  9
$UCSORGTOP
 10
0.0
 20
0.0
 30
0.0
  9
$UCSORGBOTTOM
 10
0.0
 20
0.0
 30
0.0
  9
$UCSORGLEFT
 10
0.0
 20
0.0
 30
0.0
  9
$UCSORGRIGHT
 10
0.0
 20
0.0
 30
0.0
  9
$UCSORGFRONT
 10
0.0
 20
0.0
 30
0.0
  9
$UCSORGBACK
 10
0.0
 20
0.0
 30
0.0
  9
$PUCSBASE
  2

  9
$PUCSNAME
  2

  9
$PUCSORG
 10
0.0
 20
0.0
 30
0.0
  9
$PUCSXDIR
 10
1.0
 20
0.0
 30
0.0
  9
$PUCSYDIR
 10
0.0
 20
1.0
 30
0.0
  9
$PUCSORTHOREF
  2

  9
$PUCSORTHOVIEW
 70
     0
  9
$PUCSORGTOP
 10
0.0
 20
0.0
 30
0.0
  9
$PUCSORGBOTTOM
 10
0.0
 20
0.0
 30
0.0
  9
$PUCSORGLEFT
 10
0.0
 20
0.0
 30
0.0
  9
$PUCSORGRIGHT
 10
0.0
 20
0.0
 30
0.0
  9
$PUCSORGFRONT
 10
0.0
 20
0.0
 30
0.0
  9
$PUCSORGBACK
 10
0.0
 20
0.0
 30
0.0
  9
$USERI1
 70
     0
  9
$USERI2
 70
     0
  9
$USERI3
 70
     0
  9
$USERI4
 70
     0
  9
$USERI5
 70
     0
  9
$USERR1
 40
0.0
  9
$USERR2
 40
0.0
  9
$USERR3
 40
0.0
  9
$USERR4
 40
0.0
  9
$USERR5
 40
0.0
  9
$WORLDVIEW
 70
     1
  9
$SHADEDGE
 70
     3
  9
$SHADEDIF
 70
    70
  9
$TILEMODE
 70
     1
  9
$MAXACTVP
 70
    16
  9
$PINSBASE
 10
0.0
 20
0.0
 30
0.0
  9
$PLIMCHECK
 70
     0
  9
$PEXTMIN
 10
1.000000000000000E+20
 20
1.000000000000000E+20
 30
1.000000000000000E+20
  9
$PEXTMAX
 10
-1.000000000000000E+20
 20
-1.000000000000000E+20
 30
-1.000000000000000E+20
  9
$PLIMMIN
 10
0.0
 20
0.0
  9
$PLIMMAX
 10
420.0
 20
297.0
  9
$UNITMODE
 70
     0
  9
$VISRETAIN
 70
     0
  9
$PLINEGEN
 70
     0
  9
$PSLTSCALE
 70
     1
  9
$TREEDEPTH
 70
  3020
  9
$CMLSTYLE
  2
STANDARD
  9
$CMLJUST
 70
     0
  9
$CMLSCALE
 40
1.0
  9
$PROXYGRAPHICS
 70
     1
  9
$MEASUREMENT
 70
     0
  9
$CELWEIGHT
370
    -1
  9
$ENDCAPS
280
     0
  9
$JOINSTYLE
280
     0
  9
$LWDISPLAY
290
     0
  9
$INSUNITS
 70
     0
  9
$HYPERLINKBASE
  1

  9
$STYLESHEET
  1

  9
$XEDIT
290
     1
  9
$CEPSNTYPE
380
     0
  9
$PSTYLEMODE
290
     1
  9
$FINGERPRINTGUID
  2
{092F0DE2-A3F2-11D6-AAC6-0010A4A25215}
  9
$VERSIONGUID
  2
{092F0DF1-A3F2-11D6-AAC6-0010A4A25215}
  9
$EXTNAMES
290
     1
  9
$PSVPSCALE
 40
0.0
  9
$OLESTARTUP
290
     0
  0
ENDSEC
  0
SECTION
  2
CLASSES
  0
CLASS
  1
DICTIONARYVAR
  2
AcDbDictionaryVar
  3
AutoCAD 2000
 90
        0
280
     0
281
     0
  0
CLASS
  1
LWPOLYLINE
  2
AcDbPolyline
  3
AutoCAD 2000
 90
    32768
280
     0
281
     1
  0
CLASS
  1
ACDBDICTIONARYWDFLT
  2
AcDbDictionaryWithDefault
  3
AutoCAD 2000
 90
        0
280
     0
281
     0
  0
CLASS
  1
ACDBPLACEHOLDER
  2
AcDbPlaceHolder
  3
AutoCAD 2000
 90
        0
280
     0
281
     0
  0
CLASS
  1
LAYOUT
  2
AcDbLayout
  3
AutoCAD 2000
 90
        0
280
     0
281
     0
  0
ENDSEC
  0
SECTION
  2
TABLES
  0
TABLE
  2
VPORT
  5
8
330
0
100
AcDbSymbolTable
 70
     3
  0
VPORT
  5
23D
330
8
100
AcDbSymbolTableRecord
100
AcDbViewportTableRecord
  2
*Active
 70
     0
 10
0.0
 20
0.0
 11
1.0
 21
1.0
 12
334.5666792964448
 22
127.4863951878844
 13
0.0
 23
0.0
 14
5.0
 24
5.0
 15
10.0
 25
10.0
 16
0.0
 26
0.0
 36
1.0
 17
0.0
 27
0.0
 37
0.0
 40
628.8857031903053
 41
1.768089053803339
 42
50.0
 43
0.0
 44
0.0
 50
0.0
 51
0.0
 71
     0
 72
 20000
 73
     1
 74
     1
 75
     0
 76
     0
 77
     0
 78
     0
281
     0
 65
     1
110
0.0
120
0.0
130
0.0
111
1.0
121
0.0
131
0.0
112
0.0
122
1.0
132
0.0
 79
     0
146
0.0
  0
ENDTAB
  0
TABLE
  2
LTYPE
  5
5
330
0
100
AcDbSymbolTable
 70
     1
  0
LTYPE
  5
11
330
5
100
AcDbSymbolTableRecord
100
AcDbLinetypeTableRecord
  2
BYBLOCK
 70
     0
  3

 72
    65
 73
     0
 40
0.0
  0
LTYPE
  5
12
330
5
100
AcDbSymbolTableRecord
100
AcDbLinetypeTableRecord
  2
BYLAYER
 70
     0
  3

 72
    65
 73
     0
 40
0.0
  0
LTYPE
  5
13
330
5
100
AcDbSymbolTableRecord
100
AcDbLinetypeTableRecord
  2
CONTINUOUS
 70
     0
  3
Solid line
 72
    65
 73
     0
 40
0.0
  0
ENDTAB
  0
TABLE
  2
LAYER
  5
2
330
0
100
AcDbSymbolTable
 70
    11
  0
LAYER
  5
E
330
2
100
AcDbSymbolTableRecord
100
AcDbLayerTableRecord
  2
0
 70
     0
 62
     7
  6
CONTINUOUS
370
    -3
390
172
  0
LAYER
  5
2A
330
2
100
AcDbSymbolTableRecord
100
AcDbLayerTableRecord
  2
ANCON-ORIGIN
 70
     0
 62
     1
  6
CONTINUOUS
370
    -3
390
172
  0
LAYER
  5
2B
330
2
100
AcDbSymbolTableRecord
100
AcDbLayerTableRecord
  2
ANCON-SUPPORT
 70
     0
 62
     3
  6
CONTINUOUS
370
    -3
390
172
  0
LAYER
  5
2C
330
2
100
AcDbSymbolTableRecord
100
AcDbLayerTableRecord
  2
ANCON-STRUC
 70
     0
 62
     2
  6
CONTINUOUS
370
    -3
390
172
  0
LAYER
  5
2D
330
2
100
AcDbSymbolTableRecord
100
AcDbLayerTableRecord
  2
ANCON-MASONRY
 70
     0
 62
     1
  6
CONTINUOUS
370
    -3
390
172
  0
LAYER
  5
2E
330
2
100
AcDbSymbolTableRecord
100
AcDbLayerTableRecord
  2
DEFPOINTS
 70
     0
 62
     7
  6
CONTINUOUS
290
     0
370
    -3
390
172
  0
LAYER
  5
2F
330
2
100
AcDbSymbolTableRecord
100
AcDbLayerTableRecord
  2
ANCON-DIM
 70
     0
 62
     1
  6
CONTINUOUS
370
    -3
390
172
  0
LAYER
  5
30
330
2
100
AcDbSymbolTableRecord
100
AcDbLayerTableRecord
  2
ANCON-CHANNEL
 70
     0
 62
     1
  6
CONTINUOUS
370
    -3
390
172
  0
LAYER
  5
31
330
2
100
AcDbSymbolTableRecord
100
AcDbLayerTableRecord
  2
ANCON-TEXT
 70
     0
 62
     6
  6
CONTINUOUS
370
    -3
390
172
  0
LAYER
  5
32
330
2
100
AcDbSymbolTableRecord
100
AcDbLayerTableRecord
  2
ANCON-TIE
 70
     0
 62
     1
  6
CONTINUOUS
370
    -3
390
172
  0
LAYER
  5
33
330
2
100
AcDbSymbolTableRecord
100
AcDbLayerTableRecord
  2
GENTEXT
 70
     0
 62
     2
  6
CONTINUOUS
370
    -3
390
172
  0
ENDTAB
  0
TABLE
  2
STYLE
  5
3
330
0
100
AcDbSymbolTable
 70
     2
  0
STYLE
  5
F
330
3
100
AcDbSymbolTableRecord
100
AcDbTextStyleTableRecord
  2
STANDARD
 70
     0
 40
0.0
 41
1.0
 50
0.0
 71
     0
 42
3.0
  3
txt.shx
  4

  0
STYLE
  5
24
330
3
100
AcDbSymbolTableRecord
100
AcDbTextStyleTableRecord
  2
ROMANS
 70
     0
 40
0.0
 41
1.0
 50
0.0
 71
     0
 42
9.0
  3
romans
  4

  0
ENDTAB
  0
TABLE
  2
VIEW
  5
6
330
0
100
AcDbSymbolTable
 70
     0
  0
ENDTAB
  0
TABLE
  2
UCS
  5
7
330
0
100
AcDbSymbolTable
 70
     0
  0
ENDTAB
  0
TABLE
  2
APPID
  5
9
330
0
100
AcDbSymbolTable
 70
     1
  0
APPID
  5
10
330
9
100
AcDbSymbolTableRecord
100
AcDbRegAppTableRecord
  2
ACAD
 70
     0
  0
ENDTAB
  0
TABLE
  2
DIMSTYLE
  5
A
330
0
100
AcDbSymbolTable
 70
     2
100
AcDbDimStyleTable
 71
     1
340
27
  0
DIMSTYLE
105
27
102
{ACAD_REACTORS
330
13C
102
}
330
A
100
AcDbSymbolTableRecord
100
AcDbDimStyleTableRecord
  2
1-5
 70
     0
 40
5.0
 41
0.0
 42
4.5
 43
0.0
 44
1.5
 45
1.0
 46
1.25
 73
     0
 74
     0
 77
     1
 78
    12
140
1.8
141
0.0
142
1.0
143
0.04
146
1.25
147
0.1
271
     2
272
     2
279
     2
284
    12
285
    12
286
    12
340
24
  0
DIMSTYLE
105
198
330
A
100
AcDbSymbolTableRecord
100
AcDbDimStyleTableRecord
  2
STANDARD
 70
     0
340
F
  0
ENDTAB
  0
TABLE
  2
BLOCK_RECORD
  5
1
330
0
100
AcDbSymbolTable
 70
     5
  0
BLOCK_RECORD
  5
17
330
1
100
AcDbSymbolTableRecord
100
AcDbBlockTableRecord
  2
*MODEL_SPACE
340
175
  0
BLOCK_RECORD
  5
14
330
1
100
AcDbSymbolTableRecord
100
AcDbBlockTableRecord
  2
*PAPER_SPACE
340
176
  0
BLOCK_RECORD
  5
1C
330
1
100
AcDbSymbolTableRecord
100
AcDbBlockTableRecord
  2
OR
340
0
  0
BLOCK_RECORD
  5
21
330
1
100
AcDbSymbolTableRecord
100
AcDbBlockTableRecord
  2
*D1
340
0
  0
BLOCK_RECORD
  5
17A
330
1
100
AcDbSymbolTableRecord
100
AcDbBlockTableRecord
  2
new bracket
340
0
102
{BLKREFS
331
185
102
}
  0
BLOCK_RECORD
  5
199
330
1
100
AcDbSymbolTableRecord
100
AcDbBlockTableRecord
  2
30channel
340
0
102
{BLKREFS
331
1EB
102
}
  0
ENDTAB
  0
ENDSEC
  0
SECTION
  2
BLOCKS
  0
BLOCK
  5
36
330
17
100
AcDbEntity
  8
0
100
AcDbBlockBegin
  2
*MODEL_SPACE
 70
     0
 10
0.0
 20
0.0
 30
0.0
  3
*MODEL_SPACE
  1

  0
ENDBLK
  5
37
330
17
100
AcDbEntity
  8
0
100
AcDbBlockEnd
  0
BLOCK
  5
34
330
14
100
AcDbEntity
 67
     1
  8
0
100
AcDbBlockBegin
  2
*PAPER_SPACE
 70
     0
 10
0.0
 20
0.0
 30
0.0
  3
*PAPER_SPACE
  1

  0
ENDBLK
  5
35
330
14
100
AcDbEntity
 67
     1
  8
0
100
AcDbBlockEnd
  0
BLOCK
  5
3A
330
1C
100
AcDbEntity
  8
0
100
AcDbBlockBegin
  2
OR
 70
     0
 10
0.0
 20
0.0
 30
0.0
  3
OR
  1

  0
LWPOLYLINE
  5
3B
330
1C
100
AcDbEntity
  8
ANCON-ORIGIN
100
AcDbPolyline
 90
        5
 70
     0
 43
0.0
 10
-10.17326135673704
 20
-6.213917405744268
 10
-10.17326135673704
 20
6.213917405744268
 10
10.17326135673704
 20
-6.213917405744268
 10
10.17326135673704
 20
6.213917405744268
 10
-10.17326135673704
 20
-6.213917405744268
  0
ENDBLK
  5
42
330
1C
100
AcDbEntity
  8
0
100
AcDbBlockEnd
  0
BLOCK
  5
72
330
21
100
AcDbEntity
  8
0
100
AcDbBlockBegin
  2
*D1
 70
     1
 10
0.0
 20
0.0
 30
0.0
  3
*D1
  1

  0
LINE
  5
73
330
21
100
AcDbEntity
  8
0
  6
ByBlock
 62
     0
100
AcDbLine
 10
75.0
 20
-97.5
 30
0.0
 11
75.0
 21
-126.059236015291
 31
0.0
  0
LINE
  5
74
330
21
100
AcDbEntity
  8
0
  6
ByBlock
 62
     0
100
AcDbLine
 10
55.0
 20
-12.5
 30
0.0
 11
55.0
 21
-126.059236015291
 31
0.0
  0
LINE
  5
75
330
21
100
AcDbEntity
  8
0
  6
ByBlock
 62
     0
100
AcDbLine
 10
68.75
 20
-118.559236015291
 30
0.0
 11
85.0
 21
-118.559236015291
 31
0.0
  0
LINE
  5
76
330
21
100
AcDbEntity
  8
0
  6
ByBlock
 62
     0
100
AcDbLine
 10
61.25
 20
-118.559236015291
 30
0.0
 11
45.0
 21
-118.559236015291
 31
0.0
  0
LINE
  5
77
330
21
100
AcDbEntity
  8
0
  6
ByBlock
 62
     0
100
AcDbLine
 10
45.0
 20
-118.559236015291
 30
0.0
 11
-64.35714285714286
 21
-118.559236015291
 31
0.0
  0
LINE
  5
78
330
21
100
AcDbEntity
  8
0
  6
ByBlock
 62
     0
100
AcDbLine
 10
70.0
 20
-123.559236015291
 30
0.0
 11
80.0
 21
-113.559236015291
 31
0.0
  0
LINE
  5
79
330
21
100
AcDbEntity
  8
0
  6
ByBlock
 62
     0
100
AcDbLine
 10
50.0
 20
-123.559236015291
 30
0.0
 11
60.0
 21
-113.559236015291
 31
0.0
  0
TEXT
  5
7A
330
21
100
AcDbEntity
  8
0
  6
ByBlock
 62
     0
100
AcDbText
 10
-65.64285714285715
 20
-114.059236015291
 30
0.0
 40
9.0
  1
20mm Standard
  7
ROMANS
 72
     1
 11
-9.92857142857143
 21
-109.559236015291
 31
0.0
100
AcDbText
 73
     2
  0
POINT
  5
7B
330
21
100
AcDbEntity
  8
DEFPOINTS
  6
ByBlock
 62
     0
100
AcDbPoint
 10
75.0
 20
-75.0
 30
0.0
  0
POINT
  5
7C
330
21
100
AcDbEntity
  8
DEFPOINTS
  6
ByBlock
 62
     0
100
AcDbPoint
 10
55.0
 20
10.0
 30
0.0
  0
POINT
  5
7D
330
21
100
AcDbEntity
  8
DEFPOINTS
  6
ByBlock
 62
     0
100
AcDbPoint
 10
55.0
 20
-118.559236015291
 30
0.0
  0
ENDBLK
  5
7E
330
21
100
AcDbEntity
  8
0
100
AcDbBlockEnd
  0
BLOCK
  5
183
330
17A
100
AcDbEntity
  8
0
100
AcDbBlockBegin
  2
new bracket
 70
     0
 10
0.0
 20
0.0
 30
0.0
  3
new bracket
  1

  0
LINE
  5
17B
330
17A
100
AcDbEntity
  8
ANCON-SUPPORT
100
AcDbLine
 10
85.99999999999864
 20
44.4999999999989
 30
0.0
 11
85.99999999999864
 21
-77.50000000000013
 31
0.0
  0
ARC
  5
17C
330
17A
100
AcDbEntity
  8
ANCON-SUPPORT
100
AcDbCircle
 10
102.4401703387375
 20
34.5
 30
0.0
 40
10.0
100
AcDbArc
 50
0.0
 51
90.0
  0
LINE
  5
17D
330
17A
100
AcDbEntity
  8
ANCON-SUPPORT
100
AcDbLine
 10
112.4401703387375
 20
-5.500000000000021
 30
0.0
 11
112.4401703387375
 21
34.5
 31
0.0
  0
LINE
  5
17E
330
17A
100
AcDbEntity
  8
ANCON-SUPPORT
100
AcDbLine
 10
102.4401703387375
 20
44.5
 30
0.0
 11
81.99999999999864
 21
44.49999999999997
 31
0.0
  0
LINE
  5
17F
330
17A
100
AcDbEntity
  8
ANCON-SUPPORT
100
AcDbLine
 10
81.99999999999864
 20
44.4999999999989
 30
0.0
 11
81.99999999999864
 21
-77.50000000000013
 31
0.0
  0
LINE
  5
180
330
17A
100
AcDbEntity
  8
ANCON-SUPPORT
100
AcDbLine
 10
136.9999999999986
 20
-77.50000000000013
 30
0.0
 11
81.99999999999864
 21
-77.50000000000013
 31
0.0
  0
LINE
  5
181
330
17A
100
AcDbEntity
  8
ANCON-SUPPORT
100
AcDbLine
 10
112.4401703387375
 20
-5.500000000000021
 30
0.0
 11
136.9743726001791
 21
-27.4999999999989
 31
0.0
  0
LINE
  5
182
330
17A
100
AcDbEntity
  8
ANCON-SUPPORT
100
AcDbLine
 10
136.9743726001791
 20
-27.4999999999989
 30
0.0
 11
136.9743726001784
 21
-76.93736450254205
 31
0.0
  0
ENDBLK
  5
184
330
17A
100
AcDbEntity
  8
0
100
AcDbBlockEnd
  0
BLOCK
  5
1E9
330
199
100
AcDbEntity
  8
0
100
AcDbBlockBegin
  2
30channel
 70
     0
 10
0.0
 20
0.0
 30
0.0
  3
30channel
  1

  0
TEXT
  5
19A
330
199
100
AcDbEntity
  8
ANCON-TEXT
100
AcDbText
 10
-388.3538807824293
 20
-45.23572445620127
 30
0.0
 40
9.0
  1

  7
ROMANS
100
AcDbText
  0
TEXT
  5
19B
330
199
100
AcDbEntity
  8
ANCON-TEXT
100
AcDbText
 10
-388.3538807824293
 20
-59.59282782648878
 30
0.0
 40
9.0
  1

  7
ROMANS
100
AcDbText
  0
TEXT
  5
19C
330
199
100
AcDbEntity
  8
ANCON-TEXT
100
AcDbText
 10
-333.3312888541478
 20
-30.5001404103975
 30
0.0
 40
9.0
  1

  7
ROMANS
100
AcDbText
  0
TEXT
  5
19D
330
199
100
AcDbEntity
  8
ANCON-TEXT
100
AcDbText
 10
-333.3312888541478
 20
13.21414530388827
 30
0.0
 40
9.0
  1
STANDARD EDGE : 75mm
  7
ROMANS
100
AcDbText
  0
TEXT
  5
19E
330
199
100
AcDbEntity
  8
ANCON-TEXT
100
AcDbText
 10
-333.3312888541478
 20
27.78557387531682
 30
0.0
 40
9.0
  1
ANCON 30/20 CAST-IN CHANNEL
  7
ROMANS
100
AcDbText
  0
LINE
  5
19F
330
199
100
AcDbEntity
  8
ANCON-CHANNEL
100
AcDbLine
 10
-284.8827690584341
 20
61.33809506595651
 30
0.0
 11
-284.8827690584341
 21
72.85165908403107
 31
0.0
  0
LINE
  5
1A0
330
199
100
AcDbEntity
  8
ANCON-CHANNEL
100
AcDbLine
 10
-270.7594500359755
 20
63.95330328856516
 30
0.0
 11
-270.7594500359755
 21
67.78446787575103
 31
0.0
  0
LINE
  5
1A1
330
199
100
AcDbEntity
  8
ANCON-CHANNEL
100
AcDbLine
 10
-271.7594500359755
 20
64.37379761831403
 30
0.0
 11
-271.7594500359755
 21
66.56970877590964
 31
0.0
  0
LINE
  5
1A2
330
199
100
AcDbEntity
  8
ANCON-CHANNEL
100
AcDbLine
 10
-270.7594500359755
 20
61.33809506595652
 30
0.0
 11
-270.7594500359755
 21
63.29920329505552
 31
0.0
  0
LINE
  5
1A3
330
199
100
AcDbEntity
  8
ANCON-CHANNEL
100
AcDbLine
 10
-269.7594500359755
 20
61.33809506595651
 30
0.0
 11
-269.7594500359755
 21
63.25248078397692
 31
0.0
  0
LINE
  5
1A4
330
199
100
AcDbEntity
  8
ANCON-CHANNEL
100
AcDbLine
 10
-269.7594500359755
 20
64.65412717147995
 30
0.0
 11
-269.7594500359755
 21
67.78446787575103
 31
0.0
  0
LINE
  5
1A5
330
199
100
AcDbEntity
  8
ANCON-CHANNEL
100
AcDbLine
 10
-269.7594500359755
 20
68.5787340241701
 30
0.0
 11
-269.7594500359755
 21
70.58775927243061
 31
0.0
  0
LINE
  5
1A6
330
199
100
AcDbEntity
  8
ANCON-CHANNEL
100
AcDbLine
 10
-270.7594500359755
 20
68.25168333825207
 30
0.0
 11
-270.7594500359755
 21
70.40087336309551
 31
0.0
  0
LINE
  5
1A7
330
199
100
AcDbEntity
  8
ANCON-CHANNEL
100
AcDbLine
 10
-271.7594500359755
 20
67.17708901499356
 30
0.0
 11
-271.7594500359755
 21
68.90578471008814
 31
0.0
  0
LINE
  5
1A8
330
199
100
AcDbEntity
  8
ANCON-CHANNEL
100
AcDbLine
 10
-271.7594500359755
 20
69.55988608192427
 30
0.0
 11
-271.7594500359755
 21
72.85165908403107
 31
0.0
  0
LINE
  5
1A9
330
199
100
AcDbEntity
  8
ANCON-CHANNEL
100
AcDbLine
 10
-260.7140562725162
 20
63.95330328856516
 30
0.0
 11
-260.7140562725162
 21
67.78446787575103
 31
0.0
  0
LINE
  5
1AA
330
199
100
AcDbEntity
  8
ANCON-CHANNEL
100
AcDbLine
 10
-261.7140562725162
 20
64.37379761831403
 30
0.0
 11
-261.7140562725162
 21
66.56970877590964
 31
0.0
  0
LINE
  5
1AB
330
199
100
AcDbEntity
  8
ANCON-CHANNEL
100
AcDbLine
 10
-259.7140562725162
 20
61.33809506595651
 30
0.0
 11
-259.7140562725162
 21
63.25248078397692
 31
0.0
  0
LINE
  5
1AC
330
199
100
AcDbEntity
  8
ANCON-CHANNEL
100
AcDbLine
 10
-260.7140562725162
 20
61.33809506595652
 30
0.0
 11
-260.7140562725162
 21
63.29920329505552
 31
0.0
  0
LINE
  5
1AD
330
199
100
AcDbEntity
  8
ANCON-CHANNEL
100
AcDbLine
 10
-260.7140562725162
 20
68.25168333825207
 30
0.0
 11
-260.7140562725162
 21
70.40087336309551
 31
0.0
  0
LINE
  5
1AE
330
199
100
AcDbEntity
  8
ANCON-CHANNEL
100
AcDbLine
 10
-259.7140562725162
 20
68.5787340241701
 30
0.0
 11
-259.7140562725162
 21
70.58775927243061
 31
0.0
  0
LINE
  5
1AF
330
199
100
AcDbEntity
  8
ANCON-CHANNEL
100
AcDbLine
 10
-259.7140562725162
 20
64.65412717147995
 30
0.0
 11
-259.7140562725162
 21
67.78446787575103
 31
0.0
  0
LINE
  5
1B0
330
199
100
AcDbEntity
  8
ANCON-CHANNEL
100
AcDbLine
 10
-261.7140562725162
 20
67.17708901499356
 30
0.0
 11
-261.7140562725162
 21
68.90578471008814
 31
0.0
  0
LINE
  5
1B1
330
199
100
AcDbEntity
  8
ANCON-CHANNEL
100
AcDbLine
 10
-261.7140562725162
 20
69.55988608192427
 30
0.0
 11
-261.7140562725162
 21
73.10169586768376
 31
0.0
  0
LINE
  5
1B2
330
199
100
AcDbEntity
  8
ANCON-CHANNEL
100
AcDbLine
 10
-250.6686625090569
 20
63.95330328856516
 30
0.0
 11
-250.6686625090569
 21
67.78446787575103
 31
0.0
  0
LINE
  5
1B3
330
199
100
AcDbEntity
  8
ANCON-CHANNEL
100
AcDbLine
 10
-251.6686625090569
 20
64.37379761831403
 30
0.0
 11
-251.6686625090569
 21
66.56970877590964
 31
0.0
  0
LINE
  5
1B4
330
199
100
AcDbEntity
  8
ANCON-CHANNEL
100
AcDbLine
 10
-250.6686625090569
 20
61.33809506595652
 30
0.0
 11
-250.6686625090569
 21
63.29920329505552
 31
0.0
  0
LINE
  5
1B5
330
199
100
AcDbEntity
  8
ANCON-CHANNEL
100
AcDbLine
 10
-249.6686625090569
 20
61.33809506595651
 30
0.0
 11
-249.6686625090569
 21
63.25248078397692
 31
0.0
  0
LINE
  5
1B6
330
199
100
AcDbEntity
  8
ANCON-CHANNEL
100
AcDbLine
 10
-249.6686625090569
 20
64.65412717147995
 30
0.0
 11
-249.6686625090569
 21
67.78446787575103
 31
0.0
  0
LINE
  5
1B7
330
199
100
AcDbEntity
  8
ANCON-CHANNEL
100
AcDbLine
 10
-249.6686625090569
 20
68.5787340241701
 30
0.0
 11
-249.6686625090569
 21
70.58775927243061
 31
0.0
  0
LINE
  5
1B8
330
199
100
AcDbEntity
  8
ANCON-CHANNEL
100
AcDbLine
 10
-250.6686625090569
 20
68.25168333825207
 30
0.0
 11
-250.6686625090569
 21
70.40087336309551
 31
0.0
  0
LINE
  5
1B9
330
199
100
AcDbEntity
  8
ANCON-CHANNEL
100
AcDbLine
 10
-251.6686625090569
 20
67.17708901499356
 30
0.0
 11
-251.6686625090569
 21
68.90578471008814
 31
0.0
  0
LINE
  5
1BA
330
199
100
AcDbEntity
  8
ANCON-CHANNEL
100
AcDbLine
 10
-251.6686625090569
 20
69.55988608192427
 30
0.0
 11
-251.6686625090569
 21
73.10169586768376
 31
0.0
  0
LINE
  5
1BB
330
199
100
AcDbEntity
  8
ANCON-CHANNEL
100
AcDbLine
 10
-231.5778749821383
 20
64.37379761831403
 30
0.0
 11
-231.5778749821383
 21
66.56970877590964
 31
0.0
  0
LINE
  5
1BC
330
199
100
AcDbEntity
  8
ANCON-CHANNEL
100
AcDbLine
 10
-240.6232687455976
 20
63.95330328856516
 30
0.0
 11
-240.6232687455976
 21
67.78446787575103
 31
0.0
  0
LINE
  5
1BD
330
199
100
AcDbEntity
  8
ANCON-CHANNEL
100
AcDbLine
 10
-241.6232687455976
 20
64.37379761831403
 30
0.0
 11
-241.6232687455976
 21
66.56970877590964
 31
0.0
  0
LINE
  5
1BE
330
199
100
AcDbEntity
  8
ANCON-CHANNEL
100
AcDbLine
 10
-239.6232687455976
 20
61.33809506595651
 30
0.0
 11
-239.6232687455976
 21
63.25248078397692
 31
0.0
  0
LINE
  5
1BF
330
199
100
AcDbEntity
  8
ANCON-CHANNEL
100
AcDbLine
 10
-240.6232687455976
 20
61.33809506595652
 30
0.0
 11
-240.6232687455976
 21
63.29920329505552
 31
0.0
  0
LINE
  5
1C0
330
199
100
AcDbEntity
  8
ANCON-CHANNEL
100
AcDbLine
 10
-239.6232687455976
 20
68.5787340241701
 30
0.0
 11
-239.6232687455976
 21
70.58775927243061
 31
0.0
  0
LINE
  5
1C1
330
199
100
AcDbEntity
  8
ANCON-CHANNEL
100
AcDbLine
 10
-239.6232687455976
 20
64.65412717147995
 30
0.0
 11
-239.6232687455976
 21
67.78446787575103
 31
0.0
  0
LINE
  5
1C2
330
199
100
AcDbEntity
  8
ANCON-CHANNEL
100
AcDbLine
 10
-240.6232687455976
 20
68.25168333825207
 30
0.0
 11
-240.6232687455976
 21
70.40087336309551
 31
0.0
  0
LINE
  5
1C3
330
199
100
AcDbEntity
  8
ANCON-CHANNEL
100
AcDbLine
 10
-241.6232687455976
 20
67.17708901499356
 30
0.0
 11
-241.6232687455976
 21
68.90578471008814
 31
0.0
  0
LINE
  5
1C4
330
199
100
AcDbEntity
  8
ANCON-CHANNEL
100
AcDbLine
 10
-241.6232687455976
 20
69.55988608192427
 30
0.0
 11
-241.6232687455976
 21
72.85165908403107
 31
0.0
  0
LINE
  5
1C5
330
199
100
AcDbEntity
  8
ANCON-CHANNEL
100
AcDbLine
 10
-231.5778749821383
 20
67.17708901499356
 30
0.0
 11
-231.5778749821383
 21
68.90578471008814
 31
0.0
  0
LINE
  5
1C6
330
199
100
AcDbEntity
  8
ANCON-CHANNEL
100
AcDbLine
 10
-231.5778749821383
 20
69.55988608192427
 30
0.0
 11
-231.5778749821383
 21
73.10169586768376
 31
0.0
  0
LINE
  5
1C7
330
199
100
AcDbEntity
  8
ANCON-CHANNEL
100
AcDbLine
 10
-230.5778749821383
 20
63.95330328856516
 30
0.0
 11
-230.5778749821383
 21
67.78446787575103
 31
0.0
  0
LINE
  5
1C8
330
199
100
AcDbEntity
  8
ANCON-CHANNEL
100
AcDbLine
 10
-229.5778749821383
 20
61.33809506595651
 30
0.0
 11
-229.5778749821383
 21
63.25248078397692
 31
0.0
  0
LINE
  5
1C9
330
199
100
AcDbEntity
  8
ANCON-CHANNEL
100
AcDbLine
 10
-230.5778749821383
 20
61.33809506595652
 30
0.0
 11
-230.5778749821383
 21
63.29920329505552
 31
0.0
  0
LINE
  5
1CA
330
199
100
AcDbEntity
  8
ANCON-CHANNEL
100
AcDbLine
 10
-229.5778749821383
 20
64.65412717147995
 30
0.0
 11
-229.5778749821383
 21
67.78446787575103
 31
0.0
  0
LINE
  5
1CB
330
199
100
AcDbEntity
  8
ANCON-CHANNEL
100
AcDbLine
 10
-229.5778749821383
 20
68.5787340241701
 30
0.0
 11
-229.5778749821383
 21
70.58775927243061
 31
0.0
  0
LINE
  5
1CC
330
199
100
AcDbEntity
  8
ANCON-CHANNEL
100
AcDbLine
 10
-230.5778749821383
 20
68.25168333825207
 30
0.0
 11
-230.5778749821383
 21
70.40087336309551
 31
0.0
  0
LINE
  5
1CD
330
199
100
AcDbEntity
  8
ANCON-CHANNEL
100
AcDbLine
 10
-217.8827690584341
 20
61.33809506595651
 30
0.0
 11
-217.8827690584342
 21
72.85165908403105
 31
0.0
  0
LINE
  5
1CE
330
199
100
AcDbEntity
  8
ANCON-CHANNEL
100
AcDbLine
 10
-214.8827690584342
 20
61.33809506595652
 30
0.0
 11
-214.8827690584341
 21
72.85165908403105
 31
0.0
  0
LINE
  5
1CF
330
199
100
AcDbEntity
  8
ANCON-CHANNEL
100
AcDbLine
 10
-220.3827690584341
 20
67.09487707499381
 30
0.0
 11
-220.3827690584342
 21
72.85165908403108
 31
0.0
  0
LINE
  5
1D0
330
199
100
AcDbEntity
  8
ANCON-CHANNEL
100
AcDbLine
 10
-220.3827690584341
 20
67.09487707499381
 30
0.0
 11
-220.3827690584342
 21
61.33809506595651
 31
0.0
  0
LINE
  5
1D1
330
199
100
AcDbEntity
  8
ANCON-CHANNEL
100
AcDbLine
 10
-201.3827690584341
 20
74.0948770749938
 30
0.0
 11
-201.3827690584341
 21
74.59487707499381
 31
0.0
  0
LINE
  5
1D2
330
199
100
AcDbEntity
  8
ANCON-CHANNEL
100
AcDbLine
 10
-201.3827690584341
 20
74.59487707499381
 30
0.0
 11
-201.3827690584341
 21
74.0948770749938
 31
0.0
  0
LINE
  5
1D3
330
199
100
AcDbEntity
  8
ANCON-CHANNEL
100
AcDbLine
 10
-201.3827690584341
 20
59.04845893241088
 30
0.0
 11
-201.3827690584341
 21
60.0948770749938
 31
0.0
  0
LINE
  5
1D4
330
199
100
AcDbEntity
  8
ANCON-CHANNEL
100
AcDbLine
 10
-201.3827690584341
 20
59.59487707499381
 30
0.0
 11
-201.3827690584341
 21
59.04845893241087
 31
0.0
  0
LINE
  5
1D5
330
199
100
AcDbEntity
  8
ANCON-CHANNEL
100
AcDbLine
 10
-218.7470324555025
 20
75.19751687607386
 30
0.0
 11
-207.4384431731572
 21
79.36383924325368
 31
0.0
  0
LINE
  5
1D6
330
199
100
AcDbEntity
  8
ANCON-CHANNEL
100
AcDbLine
 10
-207.4384431731572
 20
54.82591490673385
 30
0.0
 11
-218.7470324555025
 21
58.99223727391373
 31
0.0
  0
LINE
  5
1D7
330
199
100
AcDbEntity
  8
ANCON-CHANNEL
100
AcDbLine
 10
-217.8827690584341
 20
72.85165908403105
 30
0.0
 11
-206.5741797760888
 21
77.0179814512109
 31
0.0
  0
LINE
  5
1D8
330
199
100
AcDbEntity
  8
ANCON-CHANNEL
100
AcDbLine
 10
-206.5741797760888
 20
57.17177269877665
 30
0.0
 11
-217.8827690584341
 21
61.33809506595651
 31
0.0
  0
LINE
  5
1D9
330
199
100
AcDbEntity
  8
ANCON-CHANNEL
100
AcDbLine
 10
-220.3827690584342
 20
72.85165908403107
 30
0.0
 11
-284.8827690584341
 21
72.85165908403105
 31
0.0
  0
LINE
  5
1DA
330
199
100
AcDbEntity
  8
ANCON-CHANNEL
100
AcDbLine
 10
-220.3827690584341
 20
61.33809506595651
 30
0.0
 11
-284.8827690584341
 21
61.33809506595651
 31
0.0
  0
LINE
  5
1DB
330
199
100
AcDbEntity
  8
ANCON-CHANNEL
100
AcDbLine
 10
-217.8827690584342
 20
72.85165908403105
 30
0.0
 11
-214.8827690584341
 21
72.85165908403105
 31
0.0
  0
LINE
  5
1DC
330
199
100
AcDbEntity
  8
ANCON-CHANNEL
100
AcDbLine
 10
-217.8827690584341
 20
61.33809506595651
 30
0.0
 11
-214.8827690584341
 21
61.33809506595652
 31
0.0
  0
ARC
  5
1DD
330
199
100
AcDbEntity
  8
ANCON-CHANNEL
100
AcDbCircle
 10
-217.8827690584342
 20
72.85165908403108
 30
0.0
 40
2.5
100
AcDbArc
 50
110.224859431168
 51
180.0
  0
ARC
  5
1DE
330
199
100
AcDbEntity
  8
ANCON-CHANNEL
100
AcDbCircle
 10
-217.8827690584342
 20
61.33809506595651
 30
0.0
 40
2.5
100
AcDbArc
 50
180.0
 51
249.7751405688318
  0
LINE
  5
1DF
330
199
100
AcDbEntity
  8
ANCON-CHANNEL
100
AcDbLine
 10
-203.8827690584341
 20
59.04845893241087
 30
0.0
 11
-203.8827690584341
 21
60.0948770749938
 31
0.0
  0
ARC
  5
1E0
330
199
100
AcDbEntity
  8
ANCON-CHANNEL
100
AcDbCircle
 10
-205.8827690584341
 20
75.14129521757668
 30
0.0
 40
2.0
100
AcDbArc
 50
0.0000000000000509
 51
110.2248594311681
  0
ARC
  5
1E1
330
199
100
AcDbEntity
  8
ANCON-CHANNEL
100
AcDbCircle
 10
-205.8827690584341
 20
59.04845893241087
 30
0.0
 40
2.0
100
AcDbArc
 50
249.7751405688318
 51
0.0000000000000636
  0
ARC
  5
1E2
330
199
100
AcDbEntity
  8
ANCON-CHANNEL
100
AcDbCircle
 10
-205.8827690584341
 20
75.14129521757668
 30
0.0
 40
4.5
100
AcDbArc
 50
0.0000000000000509
 51
110.2248594311681
  0
ARC
  5
1E3
330
199
100
AcDbEntity
  8
ANCON-CHANNEL
100
AcDbCircle
 10
-205.8827690584341
 20
59.04845893241087
 30
0.0
 40
4.5
100
AcDbArc
 50
249.7751405688318
 51
0.0000000000000636
  0
LINE
  5
1E4
330
199
100
AcDbEntity
  8
ANCON-CHANNEL
100
AcDbLine
 10
-203.8827690584342
 20
74.0948770749938
 30
0.0
 11
-203.8827690584341
 21
75.14129521757668
 31
0.0
  0
LINE
  5
1E5
330
199
100
AcDbEntity
  8
ANCON-CHANNEL
100
AcDbLine
 10
-201.3827690584341
 20
74.0948770749938
 30
0.0
 11
-201.3827690584341
 21
75.14129521757668
 31
0.0
  0
LINE
  5
1E6
330
199
100
AcDbEntity
  8
ANCON-CHANNEL
100
AcDbLine
 10
-201.3827690584341
 20
60.09487707499379
 30
0.0
 11
-201.3827690584341
 21
59.59487707499381
 31
0.0
  0
LINE
  5
1E7
330
199
100
AcDbEntity
  8
ANCON-CHANNEL
100
AcDbLine
 10
-203.8827690584342
 20
74.0948770749938
 30
0.0
 11
-201.3827690584341
 21
74.0948770749938
 31
0.0
  0
LINE
  5
1E8
330
199
100
AcDbEntity
  8
ANCON-CHANNEL
100
AcDbLine
 10
-203.8827690584341
 20
60.0948770749938
 30
0.0
 11
-201.3827690584341
 21
60.09487707499379
 31
0.0
  0
ENDBLK
  5
1EA
330
199
100
AcDbEntity
  8
0
100
AcDbBlockEnd
  0
ENDSEC
  0
SECTION
  2
ENTITIES
  0
LINE
  5
97
330
17
100
AcDbEntity
  8
ANCON-STRUC
100
AcDbLine
 10
0.0
 20
0.0
 30
0.0
 11
0.0
 21
365.0
 31
0.0
  0
LINE
  5
98
330
17
100
AcDbEntity
  8
ANCON-STRUC
100
AcDbLine
 10
0.0
 20
0.0
 30
0.0
 11
-150.0107129008262
 21
0.0
 31
0.0
  0
LINE
  5
99
330
17
100
AcDbEntity
  8
ANCON-MASONRY
100
AcDbLine
 10
75.0
 20
15.0
 30
0.0
 11
74.99999999999999
 21
65.0
 31
0.0
  0
LINE
  5
9A
330
17
100
AcDbEntity
  8
ANCON-MASONRY
100
AcDbLine
 10
177.5
 20
0.0
 30
0.0
 11
177.4999999999999
 21
65.0
 31
0.0
  0
LINE
  5
9B
330
17
100
AcDbEntity
  8
ANCON-MASONRY
100
AcDbLine
 10
152.5
 20
0.0
 30
0.0
 11
177.5
 21
0.0
 31
0.0
  0
LINE
  5
9C
330
17
100
AcDbEntity
  8
ANCON-MASONRY
100
AcDbLine
 10
75.0
 20
65.0
 30
0.0
 11
177.5
 21
65.0
 31
0.0
  0
LINE
  5
9D
330
17
100
AcDbEntity
  8
ANCON-MASONRY
100
AcDbLine
 10
75.0
 20
75.0
 30
0.0
 11
177.5
 21
75.0
 31
0.0
  0
LINE
  5
9E
330
17
100
AcDbEntity
  8
ANCON-MASONRY
100
AcDbLine
 10
75.0
 20
140.0
 30
0.0
 11
177.5
 21
140.0
 31
0.0
  0
LINE
  5
9F
330
17
100
AcDbEntity
  8
ANCON-MASONRY
100
AcDbLine
 10
75.0
 20
75.0
 30
0.0
 11
75.0
 21
140.0
 31
0.0
  0
LINE
  5
A0
330
17
100
AcDbEntity
  8
ANCON-MASONRY
100
AcDbLine
 10
177.5
 20
75.0
 30
0.0
 11
177.4999999999999
 21
140.0
 31
0.0
  0
LINE
  5
A1
330
17
100
AcDbEntity
  8
ANCON-MASONRY
100
AcDbLine
 10
75.0
 20
215.0
 30
0.0
 11
177.5
 21
215.0
 31
0.0
  0
LINE
  5
A2
330
17
100
AcDbEntity
  8
ANCON-MASONRY
100
AcDbLine
 10
75.0
 20
150.0
 30
0.0
 11
177.5
 21
150.0
 31
0.0
  0
LINE
  5
A3
330
17
100
AcDbEntity
  8
ANCON-MASONRY
100
AcDbLine
 10
75.0
 20
150.0
 30
0.0
 11
75.0
 21
215.0
 31
0.0
  0
LINE
  5
A4
330
17
100
AcDbEntity
  8
ANCON-MASONRY
100
AcDbLine
 10
177.5
 20
150.0
 30
0.0
 11
177.4999999999999
 21
215.0
 31
0.0
  0
LINE
  5
A5
330
17
100
AcDbEntity
  8
ANCON-MASONRY
100
AcDbLine
 10
75.00000000000003
 20
290.0
 30
0.0
 11
177.5
 21
290.0
 31
0.0
  0
LINE
  5
A6
330
17
100
AcDbEntity
  8
ANCON-MASONRY
100
AcDbLine
 10
75.00000000000003
 20
225.0
 30
0.0
 11
177.5
 21
225.0
 31
0.0
  0
LINE
  5
A7
330
17
100
AcDbEntity
  8
ANCON-MASONRY
100
AcDbLine
 10
75.00000000000003
 20
225.0
 30
0.0
 11
75.00000000000003
 21
290.0
 31
0.0
  0
LINE
  5
A8
330
17
100
AcDbEntity
  8
ANCON-MASONRY
100
AcDbLine
 10
177.5
 20
225.0
 30
0.0
 11
177.5
 21
290.0
 31
0.0
  0
LINE
  5
B7
330
17
100
AcDbEntity
  8
ANCON-MASONRY
100
AcDbLine
 10
75.0
 20
-10.0
 30
0.0
 11
177.5
 21
-10.0
 31
0.0
  0
LINE
  5
B8
330
17
100
AcDbEntity
  8
ANCON-MASONRY
100
AcDbLine
 10
75.0
 20
-75.0
 30
0.0
 11
74.99999999999999
 21
-10.0
 31
0.0
  0
LINE
  5
B9
330
17
100
AcDbEntity
  8
ANCON-MASONRY
100
AcDbLine
 10
177.5
 20
-75.0
 30
0.0
 11
177.4999999999999
 21
-10.0
 31
0.0
  0
LINE
  5
BA
330
17
100
AcDbEntity
  8
ANCON-MASONRY
100
AcDbLine
 10
152.5
 20
-0.0000000000000111
 30
0.0
 11
152.5
 21
15.0
 31
0.0
  0
LINE
  5
BB
330
17
100
AcDbEntity
  8
ANCON-MASONRY
100
AcDbLine
 10
75.0
 20
15.0
 30
0.0
 11
152.5
 21
15.0
 31
0.0
  0
TEXT
  5
BC
330
17
100
AcDbEntity
  8
ANCON-TEXT
100
AcDbText
 10
-388.3538807824293
 20
114.7642755437987
 30
0.0
 40
9.0
  1

  7
ROMANS
100
AcDbText
  0
TEXT
  5
BD
330
17
100
AcDbEntity
  8
ANCON-TEXT
100
AcDbText
 10
-388.3538807824293
 20
100.4071721735112
 30
0.0
 40
9.0
  1

  7
ROMANS
100
AcDbText
  0
LINE
  5
122
330
17
100
AcDbEntity
  8
ANCON-MASONRY
100
AcDbLine
 10
75.00000000000006
 20
300.0
 30
0.0
 11
177.5
 21
300.0
 31
0.0
  0
LINE
  5
123
330
17
100
AcDbEntity
  8
ANCON-MASONRY
100
AcDbLine
 10
75.00000000000006
 20
300.0
 30
0.0
 11
75.00000000000006
 21
365.0
 31
0.0
  0
LINE
  5
124
330
17
100
AcDbEntity
  8
ANCON-MASONRY
100
AcDbLine
 10
177.5
 20
300.0
 30
0.0
 11
177.5
 21
365.0
 31
0.0
  0
LINE
  5
125
330
17
100
AcDbEntity
  8
ANCON-CHANNEL
100
AcDbLine
 10
0.0
 20
245.0
 30
0.0
 11
-18.0
 21
245.0
 31
0.0
  0
LINE
  5
126
330
17
100
AcDbEntity
  8
ANCON-CHANNEL
100
AcDbLine
 10
0.0
 20
345.0
 30
0.0
 11
-18.0
 21
345.0
 31
0.0
  0
LINE
  5
127
330
17
100
AcDbEntity
  8
ANCON-CHANNEL
100
AcDbLine
 10
-18.0
 20
345.0
 30
0.0
 11
-18.0
 21
245.0
 31
0.0
  0
LINE
  5
128
330
17
100
AcDbEntity
  8
ANCON-CHANNEL
100
AcDbLine
 10
0.0
 20
345.0
 30
0.0
 11
0.0
 21
245.0
 31
0.0
  0
LINE
  5
129
330
17
100
AcDbEntity
  8
ANCON-CHANNEL
100
AcDbLine
 10
-11.0
 20
345.0
 30
0.0
 11
-11.0
 21
245.0
 31
0.0
  0
LINE
  5
12A
330
17
100
AcDbEntity
  8
ANCON-TIE
100
AcDbLine
 10
140.0
 20
296.25
 30
0.0
 11
65.00000000000006
 21
296.25
 31
0.0
  0
LINE
  5
12B
330
17
100
AcDbEntity
  8
ANCON-TIE
100
AcDbLine
 10
140.0
 20
293.75
 30
0.0
 11
65.00000000000006
 21
293.7499999999999
 31
0.0
  0
LINE
  5
12C
330
17
100
AcDbEntity
  8
ANCON-TIE
100
AcDbLine
 10
140.0
 20
296.25
 30
0.0
 11
140.0
 21
293.75
 31
0.0
  0
LINE
  5
12D
330
17
100
AcDbEntity
  8
ANCON-TIE
100
AcDbLine
 10
35.00000000000005
 20
296.25
 30
0.0
 11
0.0
 21
296.25
 31
0.0
  0
LINE
  5
12E
330
17
100
AcDbEntity
  8
ANCON-TIE
100
AcDbLine
 10
35.00000000000005
 20
293.7499999999999
 30
0.0
 11
0.0
 21
293.7499999999999
 31
0.0
  0
LINE
  5
12F
330
17
100
AcDbEntity
  8
ANCON-TIE
100
AcDbLine
 10
35.00000000000005
 20
296.25
 30
0.0
 11
50.00000000000006
 21
292.2499999999999
 31
0.0
  0
LINE
  5
130
330
17
100
AcDbEntity
  8
ANCON-TIE
100
AcDbLine
 10
50.00000000000006
 20
292.2499999999999
 30
0.0
 11
65.00000000000006
 21
296.25
 31
0.0
  0
LINE
  5
131
330
17
100
AcDbEntity
  8
ANCON-TIE
100
AcDbLine
 10
50.00000000000006
 20
289.7499999999999
 30
0.0
 11
65.00000000000006
 21
293.7499999999999
 31
0.0
  0
LINE
  5
132
330
17
100
AcDbEntity
  8
ANCON-TIE
100
AcDbLine
 10
35.00000000000005
 20
293.7499999999999
 30
0.0
 11
50.00000000000006
 21
289.7499999999999
 31
0.0
  0
TEXT
  5
133
330
17
100
AcDbEntity
  8
GENTEXT
100
AcDbText
 10
787.8674598891048
 20
408.4904061394615
 30
0.0
 40
9.0
  1

  7
ROMANS
100
AcDbText
  0
TEXT
  5
134
330
17
100
AcDbEntity
  8
ANCON-TEXT
100
AcDbText
 10
146.4484965359511
 20
5.91354992380355
 30
0.0
 40
9.0
  1

  7
ROMANS
100
AcDbText
  0
TEXT
  5
135
330
17
100
AcDbEntity
  8
ANCON-TEXT
100
AcDbText
 10
146.4484965359511
 20
-8.44355344648396
 30
0.0
 40
9.0
  1

  7
ROMANS
100
AcDbText
  0
DIMENSION
  5
13C
330
17
100
AcDbEntity
  8
ANCON-DIM
100
AcDbDimension
  2
*D1
 10
55.0
 20
-118.559236015291
 30
0.0
 11
-9.92857142857143
 21
-109.559236015291
 31
0.0
  1
20mm Standard
 71
     5
 42
-1.0
  3
1-5
100
AcDbAlignedDimension
 13
75.0
 23
-75.0
 33
0.0
 14
55.0
 24
10.0
 34
0.0
100
AcDbRotatedDimension
  0
TEXT
  5
159
330
17
100
AcDbEntity
  8
ANCON-TEXT
100
AcDbText
 10
305.7841326933564
 20
-233.6040736799481
 30
0.0
 40
9.0
  1

  7
ROMANS
100
AcDbText
  0
TEXT
  5
161
330
17
100
AcDbEntity
  8
ANCON-TEXT
100
AcDbText
 10
305.7841326933564
 20
-174.7898794810395
 30
0.0
 40
9.0
  1

  7
ROMANS
100
AcDbText
  0
TEXT
  5
162
330
17
100
AcDbEntity
  8
ANCON-TEXT
100
AcDbText
 10
322.9345056812862
 20
195.3687484554268
 30
0.0
 40
9.0
  1
Ancon MDC Systems can be specified by the
  7
ROMANS
100
AcDbText
  0
TEXT
  5
163
330
17
100
AcDbEntity
  8
ANCON-TEXT
100
AcDbText
 10
322.9345056812862
 20
180.7973198839982
 30
0.0
 40
9.0
  1
cavity width/load from masonry ie. MDC/75/5.6
  7
ROMANS
100
AcDbText
  0
TEXT
  5
164
330
17
100
AcDbEntity
  8
ANCON-TEXT
100
AcDbText
 10
322.9345056812862
 20
166.2258913125696
 30
0.0
 40
9.0
  1
Ancon Building Products will design a system to suit a 75mm cavity
  7
ROMANS
100
AcDbText
  0
TEXT
  5
165
330
17
100
AcDbEntity
  8
ANCON-TEXT
100
AcDbText
 10
322.9345056812862
 20
151.654462741141
 30
0.0
 40
9.0
  1
and carry 5.6 kilonewtons load per metre run.
  7
ROMANS
100
AcDbText
  0
MTEXT
  5
169
330
17
100
AcDbEntity
  8
ANCON-TEXT
100
AcDbMText
 10
321.7925596858849
 20
110.9164616294788
 30
0.0
 40
9.0
 41
395.12
 71
     1
 72
     5
  1
The MDC system is suitable for cavities in the 50mm - 155mm range as standard, when fixed to cast in channel with 'T' head bolts.
  7
ROMANS
 73
     1
 44
1.0
  0
LINE
  5
186
330
17
100
AcDbEntity
  8
ANCON-SUPPORT
100
AcDbLine
 10
4.0
 20
156.999999999999
 30
0.0
 11
4.0
 21
10.0
 31
0.0
  0
ARC
  5
187
330
17
100
AcDbEntity
  8
ANCON-SUPPORT
100
AcDbCircle
 10
20.44017033873888
 20
147.0000000000001
 30
0.0
 40
10.0
100
AcDbArc
 50
0.0
 51
90.0
  0
LINE
  5
188
330
17
100
AcDbEntity
  8
ANCON-SUPPORT
100
AcDbLine
 10
30.44017033873888
 20
107.0000000000001
 30
0.0
 11
30.44017033873888
 21
147.0000000000001
 31
0.0
  0
LINE
  5
189
330
17
100
AcDbEntity
  8
ANCON-SUPPORT
100
AcDbLine
 10
20.44017033873888
 20
157.0000000000001
 30
0.0
 11
0.0
 21
157.0000000000001
 31
0.0
  0
LINE
  5
18A
330
17
100
AcDbEntity
  8
ANCON-SUPPORT
100
AcDbLine
 10
0.0
 20
156.999999999999
 30
0.0
 11
0.0
 21
10.0
 31
0.0
  0
LINE
  5
18B
330
17
100
AcDbEntity
  8
ANCON-SUPPORT
100
AcDbLine
 10
55.0
 20
10.0
 30
0.0
 11
0.0
 21
10.0
 31
0.0
  0
LINE
  5
18C
330
17
100
AcDbEntity
  8
ANCON-SUPPORT
100
AcDbLine
 10
30.44017033873888
 20
107.0000000000001
 30
0.0
 11
54.97437260018045
 21
60.00000000000119
 31
0.0
  0
LINE
  5
18D
330
17
100
AcDbEntity
  8
ANCON-SUPPORT
100
AcDbLine
 10
54.97437260018045
 20
60.00000000000119
 30
0.0
 11
54.97437260017978
 21
10.56263549745807
 31
0.0
  0
LINE
  5
18F
330
17
100
AcDbEntity
  8
ANCON-SUPPORT
100
AcDbLine
 10
55.0
 20
50.0
 30
0.0
 11
55.0
 21
8.0
 31
0.0
  0
LINE
  5
190
330
17
100
AcDbEntity
  8
ANCON-SUPPORT
100
AcDbLine
 10
63.0
 20
0.0
 30
0.0
 11
145.0
 21
0.0
 31
0.0
  0
LINE
  5
191
330
17
100
AcDbEntity
  8
ANCON-SUPPORT
100
AcDbLine
 10
59.0
 20
50.0
 30
0.0
 11
59.0
 21
8.0
 31
0.0
  0
LINE
  5
192
330
17
100
AcDbEntity
  8
ANCON-SUPPORT
100
AcDbLine
 10
63.0
 20
4.0
 30
0.0
 11
145.0
 21
4.0
 31
0.0
  0
LINE
  5
193
330
17
100
AcDbEntity
  8
ANCON-SUPPORT
100
AcDbLine
 10
55.0
 20
50.0
 30
0.0
 11
59.0
 21
50.0
 31
0.0
  0
LINE
  5
194
330
17
100
AcDbEntity
  8
ANCON-SUPPORT
100
AcDbLine
 10
145.0
 20
4.0
 30
0.0
 11
145.0
 21
0.0
 31
0.0
  0
ARC
  5
195
330
17
100
AcDbEntity
  8
ANCON-SUPPORT
100
AcDbCircle
 10
63.0
 20
8.0
 30
0.0
 40
4.0
100
AcDbArc
 50
180.0
 51
270.0
  0
ARC
  5
196
330
17
100
AcDbEntity
  8
ANCON-SUPPORT
100
AcDbCircle
 10
63.0
 20
8.0
 30
0.0
 40
8.0
100
AcDbArc
 50
180.0
 51
270.0
  0
TEXT
  5
1EC
330
17
100
AcDbEntity
  8
ANCON-TEXT
100
AcDbText
 10
-452.1617305621762
 20
91.2493485542366
 30
0.0
 40
9.0
  1

  7
ROMANS
100
AcDbText
  0
TEXT
  5
1ED
330
17
100
AcDbEntity
  8
ANCON-TEXT
100
AcDbText
 10
-452.1617305621762
 20
76.89224518394908
 30
0.0
 40
9.0
  1

  7
ROMANS
100
AcDbText
  0
TEXT
  5
1EE
330
17
100
AcDbEntity
  8
ANCON-TEXT
100
AcDbText
 10
-397.1391386338946
 20
105.9849326000403
 30
0.0
 40
9.0
  1

  7
ROMANS
100
AcDbText
  0
LINE
  5
1F1
330
17
100
AcDbEntity
  8
ANCON-CHANNEL
100
AcDbLine
 10
-83.49999999999999
 20
114.2432179909628
 30
0.0
 11
-83.49999999999999
 21
125.7567820090373
 31
0.0
  0
LINE
  5
1F2
330
17
100
AcDbEntity
  8
ANCON-CHANNEL
100
AcDbLine
 10
-69.37668097754135
 20
116.8584262135714
 30
0.0
 11
-69.37668097754135
 21
120.6895908007573
 31
0.0
  0
LINE
  5
1F3
330
17
100
AcDbEntity
  8
ANCON-CHANNEL
100
AcDbLine
 10
-70.37668097754135
 20
117.2789205433203
 30
0.0
 11
-70.37668097754135
 21
119.4748317009159
 31
0.0
  0
LINE
  5
1F4
330
17
100
AcDbEntity
  8
ANCON-CHANNEL
100
AcDbLine
 10
-69.37668097754135
 20
114.2432179909628
 30
0.0
 11
-69.37668097754135
 21
116.2043262200618
 31
0.0
  0
LINE
  5
1F5
330
17
100
AcDbEntity
  8
ANCON-CHANNEL
100
AcDbLine
 10
-68.37668097754129
 20
114.2432179909628
 30
0.0
 11
-68.37668097754136
 21
116.1576037089832
 31
0.0
  0
LINE
  5
1F6
330
17
100
AcDbEntity
  8
ANCON-CHANNEL
100
AcDbLine
 10
-68.37668097754136
 20
117.5592500964862
 30
0.0
 11
-68.37668097754136
 21
120.6895908007573
 31
0.0
  0
LINE
  5
1F7
330
17
100
AcDbEntity
  8
ANCON-CHANNEL
100
AcDbLine
 10
-68.37668097754136
 20
121.4838569491764
 30
0.0
 11
-68.37668097754136
 21
123.4928821974369
 31
0.0
  0
LINE
  5
1F8
330
17
100
AcDbEntity
  8
ANCON-CHANNEL
100
AcDbLine
 10
-69.37668097754135
 20
121.1568062632583
 30
0.0
 11
-69.37668097754135
 21
123.3059962881018
 31
0.0
  0
LINE
  5
1F9
330
17
100
AcDbEntity
  8
ANCON-CHANNEL
100
AcDbLine
 10
-70.37668097754135
 20
120.0822119399998
 30
0.0
 11
-70.37668097754135
 21
121.8109076350944
 31
0.0
  0
LINE
  5
1FA
330
17
100
AcDbEntity
  8
ANCON-CHANNEL
100
AcDbLine
 10
-70.37668097754135
 20
122.4650090069305
 30
0.0
 11
-70.37668097754135
 21
125.7567820090373
 31
0.0
  0
LINE
  5
1FB
330
17
100
AcDbEntity
  8
ANCON-CHANNEL
100
AcDbLine
 10
-59.33128721408206
 20
116.8584262135714
 30
0.0
 11
-59.33128721408206
 21
120.6895908007573
 31
0.0
  0
LINE
  5
1FC
330
17
100
AcDbEntity
  8
ANCON-CHANNEL
100
AcDbLine
 10
-60.33128721408207
 20
117.2789205433203
 30
0.0
 11
-60.33128721408207
 21
119.4748317009159
 31
0.0
  0
LINE
  5
1FD
330
17
100
AcDbEntity
  8
ANCON-CHANNEL
100
AcDbLine
 10
-58.33128721408201
 20
114.2432179909628
 30
0.0
 11
-58.33128721408207
 21
116.1576037089832
 31
0.0
  0
LINE
  5
1FE
330
17
100
AcDbEntity
  8
ANCON-CHANNEL
100
AcDbLine
 10
-59.33128721408206
 20
114.2432179909628
 30
0.0
 11
-59.33128721408206
 21
116.2043262200618
 31
0.0
  0
LINE
  5
1FF
330
17
100
AcDbEntity
  8
ANCON-CHANNEL
100
AcDbLine
 10
-59.33128721408206
 20
121.1568062632583
 30
0.0
 11
-59.33128721408206
 21
123.3059962881018
 31
0.0
  0
LINE
  5
200
330
17
100
AcDbEntity
  8
ANCON-CHANNEL
100
AcDbLine
 10
-58.33128721408207
 20
121.4838569491764
 30
0.0
 11
-58.33128721408207
 21
123.4928821974369
 31
0.0
  0
LINE
  5
201
330
17
100
AcDbEntity
  8
ANCON-CHANNEL
100
AcDbLine
 10
-58.33128721408207
 20
117.5592500964862
 30
0.0
 11
-58.33128721408207
 21
120.6895908007573
 31
0.0
  0
LINE
  5
202
330
17
100
AcDbEntity
  8
ANCON-CHANNEL
100
AcDbLine
 10
-60.33128721408207
 20
120.0822119399998
 30
0.0
 11
-60.33128721408207
 21
121.8109076350944
 31
0.0
  0
LINE
  5
203
330
17
100
AcDbEntity
  8
ANCON-CHANNEL
100
AcDbLine
 10
-60.33128721408207
 20
122.4650090069305
 30
0.0
 11
-60.33128721408207
 21
126.00681879269
 31
0.0
  0
LINE
  5
204
330
17
100
AcDbEntity
  8
ANCON-CHANNEL
100
AcDbLine
 10
-49.28589345062277
 20
116.8584262135714
 30
0.0
 11
-49.28589345062277
 21
120.6895908007573
 31
0.0
  0
LINE
  5
205
330
17
100
AcDbEntity
  8
ANCON-CHANNEL
100
AcDbLine
 10
-50.28589345062278
 20
117.2789205433203
 30
0.0
 11
-50.28589345062278
 21
119.4748317009159
 31
0.0
  0
LINE
  5
206
330
17
100
AcDbEntity
  8
ANCON-CHANNEL
100
AcDbLine
 10
-49.28589345062272
 20
114.2432179909628
 30
0.0
 11
-49.28589345062277
 21
116.2043262200618
 31
0.0
  0
LINE
  5
207
330
17
100
AcDbEntity
  8
ANCON-CHANNEL
100
AcDbLine
 10
-48.28589345062272
 20
114.2432179909628
 30
0.0
 11
-48.28589345062278
 21
116.1576037089832
 31
0.0
  0
LINE
  5
208
330
17
100
AcDbEntity
  8
ANCON-CHANNEL
100
AcDbLine
 10
-48.28589345062278
 20
117.5592500964862
 30
0.0
 11
-48.28589345062278
 21
120.6895908007573
 31
0.0
  0
LINE
  5
209
330
17
100
AcDbEntity
  8
ANCON-CHANNEL
100
AcDbLine
 10
-48.28589345062278
 20
121.4838569491764
 30
0.0
 11
-48.28589345062278
 21
123.4928821974369
 31
0.0
  0
LINE
  5
20A
330
17
100
AcDbEntity
  8
ANCON-CHANNEL
100
AcDbLine
 10
-49.28589345062277
 20
121.1568062632583
 30
0.0
 11
-49.28589345062277
 21
123.3059962881018
 31
0.0
  0
LINE
  5
20B
330
17
100
AcDbEntity
  8
ANCON-CHANNEL
100
AcDbLine
 10
-50.28589345062278
 20
120.0822119399998
 30
0.0
 11
-50.28589345062278
 21
121.8109076350944
 31
0.0
  0
LINE
  5
20C
330
17
100
AcDbEntity
  8
ANCON-CHANNEL
100
AcDbLine
 10
-50.28589345062278
 20
122.4650090069305
 30
0.0
 11
-50.28589345062278
 21
126.00681879269
 31
0.0
  0
LINE
  5
20D
330
17
100
AcDbEntity
  8
ANCON-CHANNEL
100
AcDbLine
 10
-30.1951059237042
 20
117.2789205433203
 30
0.0
 11
-30.1951059237042
 21
119.4748317009159
 31
0.0
  0
LINE
  5
20E
330
17
100
AcDbEntity
  8
ANCON-CHANNEL
100
AcDbLine
 10
-39.24049968716349
 20
116.8584262135714
 30
0.0
 11
-39.24049968716349
 21
120.6895908007573
 31
0.0
  0
LINE
  5
20F
330
17
100
AcDbEntity
  8
ANCON-CHANNEL
100
AcDbLine
 10
-40.24049968716349
 20
117.2789205433203
 30
0.0
 11
-40.24049968716349
 21
119.4748317009159
 31
0.0
  0
LINE
  5
210
330
17
100
AcDbEntity
  8
ANCON-CHANNEL
100
AcDbLine
 10
-38.24049968716343
 20
114.2432179909628
 30
0.0
 11
-38.24049968716349
 21
116.1576037089832
 31
0.0
  0
LINE
  5
211
330
17
100
AcDbEntity
  8
ANCON-CHANNEL
100
AcDbLine
 10
-39.24049968716349
 20
114.2432179909628
 30
0.0
 11
-39.24049968716349
 21
116.2043262200618
 31
0.0
  0
LINE
  5
212
330
17
100
AcDbEntity
  8
ANCON-CHANNEL
100
AcDbLine
 10
-38.24049968716349
 20
121.4838569491764
 30
0.0
 11
-38.24049968716349
 21
123.4928821974369
 31
0.0
  0
LINE
  5
213
330
17
100
AcDbEntity
  8
ANCON-CHANNEL
100
AcDbLine
 10
-38.24049968716349
 20
117.5592500964862
 30
0.0
 11
-38.24049968716349
 21
120.6895908007573
 31
0.0
  0
LINE
  5
214
330
17
100
AcDbEntity
  8
ANCON-CHANNEL
100
AcDbLine
 10
-39.24049968716349
 20
121.1568062632583
 30
0.0
 11
-39.24049968716349
 21
123.3059962881018
 31
0.0
  0
LINE
  5
215
330
17
100
AcDbEntity
  8
ANCON-CHANNEL
100
AcDbLine
 10
-40.24049968716349
 20
120.0822119399998
 30
0.0
 11
-40.24049968716349
 21
121.8109076350944
 31
0.0
  0
LINE
  5
216
330
17
100
AcDbEntity
  8
ANCON-CHANNEL
100
AcDbLine
 10
-40.24049968716349
 20
122.4650090069305
 30
0.0
 11
-40.24049968716349
 21
125.7567820090373
 31
0.0
  0
LINE
  5
217
330
17
100
AcDbEntity
  8
ANCON-CHANNEL
100
AcDbLine
 10
-30.1951059237042
 20
120.0822119399998
 30
0.0
 11
-30.1951059237042
 21
121.8109076350944
 31
0.0
  0
LINE
  5
218
330
17
100
AcDbEntity
  8
ANCON-CHANNEL
100
AcDbLine
 10
-30.1951059237042
 20
122.4650090069305
 30
0.0
 11
-30.1951059237042
 21
126.00681879269
 31
0.0
  0
LINE
  5
219
330
17
100
AcDbEntity
  8
ANCON-CHANNEL
100
AcDbLine
 10
-29.1951059237042
 20
116.8584262135714
 30
0.0
 11
-29.1951059237042
 21
120.6895908007573
 31
0.0
  0
LINE
  5
21A
330
17
100
AcDbEntity
  8
ANCON-CHANNEL
100
AcDbLine
 10
-28.1951059237042
 20
114.2432179909628
 30
0.0
 11
-28.1951059237042
 21
116.1576037089832
 31
0.0
  0
LINE
  5
21B
330
17
100
AcDbEntity
  8
ANCON-CHANNEL
100
AcDbLine
 10
-29.1951059237042
 20
114.2432179909628
 30
0.0
 11
-29.1951059237042
 21
116.2043262200618
 31
0.0
  0
LINE
  5
21C
330
17
100
AcDbEntity
  8
ANCON-CHANNEL
100
AcDbLine
 10
-28.1951059237042
 20
117.5592500964862
 30
0.0
 11
-28.1951059237042
 21
120.6895908007573
 31
0.0
  0
LINE
  5
21D
330
17
100
AcDbEntity
  8
ANCON-CHANNEL
100
AcDbLine
 10
-28.1951059237042
 20
121.4838569491764
 30
0.0
 11
-28.1951059237042
 21
123.4928821974369
 31
0.0
  0
LINE
  5
21E
330
17
100
AcDbEntity
  8
ANCON-CHANNEL
100
AcDbLine
 10
-29.1951059237042
 20
121.1568062632583
 30
0.0
 11
-29.1951059237042
 21
123.3059962881018
 31
0.0
  0
LINE
  5
21F
330
17
100
AcDbEntity
  8
ANCON-CHANNEL
100
AcDbLine
 10
-16.5
 20
114.2432179909628
 30
0.0
 11
-16.5
 21
125.7567820090373
 31
0.0
  0
LINE
  5
220
330
17
100
AcDbEntity
  8
ANCON-CHANNEL
100
AcDbLine
 10
-13.50000000000005
 20
114.2432179909628
 30
0.0
 11
-13.5
 21
125.7567820090373
 31
0.0
  0
LINE
  5
221
330
17
100
AcDbEntity
  8
ANCON-CHANNEL
100
AcDbLine
 10
-19.0
 20
120.0000000000001
 30
0.0
 11
-19.0
 21
125.7567820090374
 31
0.0
  0
LINE
  5
222
330
17
100
AcDbEntity
  8
ANCON-CHANNEL
100
AcDbLine
 10
-19.0
 20
120.0000000000001
 30
0.0
 11
-19.0
 21
114.2432179909628
 31
0.0
  0
LINE
  5
223
330
17
100
AcDbEntity
  8
ANCON-CHANNEL
100
AcDbLine
 10
0.0
 20
127.0000000000001
 30
0.0
 11
0.0
 21
127.5000000000001
 31
0.0
  0
LINE
  5
224
330
17
100
AcDbEntity
  8
ANCON-CHANNEL
100
AcDbLine
 10
0.0
 20
127.5000000000001
 30
0.0
 11
0.0
 21
127.0000000000001
 31
0.0
  0
LINE
  5
225
330
17
100
AcDbEntity
  8
ANCON-CHANNEL
100
AcDbLine
 10
0.0
 20
111.9535818574171
 30
0.0
 11
0.0
 21
113.0000000000001
 31
0.0
  0
LINE
  5
226
330
17
100
AcDbEntity
  8
ANCON-CHANNEL
100
AcDbLine
 10
0.0
 20
112.5000000000001
 30
0.0
 11
0.0
 21
111.9535818574171
 31
0.0
  0
LINE
  5
227
330
17
100
AcDbEntity
  8
ANCON-CHANNEL
100
AcDbLine
 10
-17.36426339706838
 20
128.1026398010801
 30
0.0
 11
-6.055674114723103
 21
132.2689621682599
 31
0.0
  0
LINE
  5
228
330
17
100
AcDbEntity
  8
ANCON-CHANNEL
100
AcDbLine
 10
-6.055674114723046
 20
107.7310378317401
 30
0.0
 11
-17.36426339706838
 21
111.89736019892
 31
0.0
  0
LINE
  5
229
330
17
100
AcDbEntity
  8
ANCON-CHANNEL
100
AcDbLine
 10
-16.5
 20
125.7567820090373
 30
0.0
 11
-5.191410717654719
 21
129.9231043762172
 31
0.0
  0
LINE
  5
22A
330
17
100
AcDbEntity
  8
ANCON-CHANNEL
100
AcDbLine
 10
-5.191410717654662
 20
110.0768956237829
 30
0.0
 11
-16.5
 21
114.2432179909628
 31
0.0
  0
LINE
  5
22B
330
17
100
AcDbEntity
  8
ANCON-CHANNEL
100
AcDbLine
 10
-19.0
 20
125.7567820090373
 30
0.0
 11
-83.49999999999994
 21
125.7567820090373
 31
0.0
  0
LINE
  5
22C
330
17
100
AcDbEntity
  8
ANCON-CHANNEL
100
AcDbLine
 10
-19.0
 20
114.2432179909628
 30
0.0
 11
-83.49999999999999
 21
114.2432179909628
 31
0.0
  0
LINE
  5
22D
330
17
100
AcDbEntity
  8
ANCON-CHANNEL
100
AcDbLine
 10
-16.5
 20
125.7567820090373
 30
0.0
 11
-13.5
 21
125.7567820090373
 31
0.0
  0
LINE
  5
22E
330
17
100
AcDbEntity
  8
ANCON-CHANNEL
100
AcDbLine
 10
-16.5
 20
114.2432179909628
 30
0.0
 11
-13.5
 21
114.2432179909628
 31
0.0
  0
ARC
  5
22F
330
17
100
AcDbEntity
  8
ANCON-CHANNEL
100
AcDbCircle
 10
-16.5
 20
125.7567820090374
 30
0.0
 40
2.5
100
AcDbArc
 50
110.2248594311679
 51
180.0
  0
ARC
  5
230
330
17
100
AcDbEntity
  8
ANCON-CHANNEL
100
AcDbCircle
 10
-16.5
 20
114.2432179909628
 30
0.0
 40
2.5
100
AcDbArc
 50
180.0
 51
249.775140568832
  0
LINE
  5
231
330
17
100
AcDbEntity
  8
ANCON-CHANNEL
100
AcDbLine
 10
-2.499999999999943
 20
111.9535818574171
 30
0.0
 11
-2.5
 21
113.0000000000001
 31
0.0
  0
ARC
  5
232
330
17
100
AcDbEntity
  8
ANCON-CHANNEL
100
AcDbCircle
 10
-4.5
 20
128.0464181425829
 30
0.0
 40
2.0
100
AcDbArc
 50
0.0
 51
110.2248594311679
  0
ARC
  5
233
330
17
100
AcDbEntity
  8
ANCON-CHANNEL
100
AcDbCircle
 10
-4.499999999999943
 20
111.9535818574171
 30
0.0
 40
2.0
100
AcDbArc
 50
249.775140568832
 51
0.0
  0
ARC
  5
234
330
17
100
AcDbEntity
  8
ANCON-CHANNEL
100
AcDbCircle
 10
-4.5
 20
128.0464181425829
 30
0.0
 40
4.5
100
AcDbArc
 50
0.0
 51
110.2248594311679
  0
ARC
  5
235
330
17
100
AcDbEntity
  8
ANCON-CHANNEL
100
AcDbCircle
 10
-4.499999999999943
 20
111.9535818574171
 30
0.0
 40
4.5
100
AcDbArc
 50
249.775140568832
 51
0.0
  0
LINE
  5
236
330
17
100
AcDbEntity
  8
ANCON-CHANNEL
100
AcDbLine
 10
-2.5
 20
127.0000000000001
 30
0.0
 11
-2.5
 21
128.0464181425829
 31
0.0
  0
LINE
  5
237
330
17
100
AcDbEntity
  8
ANCON-CHANNEL
100
AcDbLine
 10
0.0
 20
127.0000000000001
 30
0.0
 11
0.0
 21
128.0464181425829
 31
0.0
  0
LINE
  5
238
330
17
100
AcDbEntity
  8
ANCON-CHANNEL
100
AcDbLine
 10
0.0
 20
113.0000000000001
 30
0.0
 11
0.0
 21
112.5000000000001
 31
0.0
  0
LINE
  5
239
330
17
100
AcDbEntity
  8
ANCON-CHANNEL
100
AcDbLine
 10
-2.5
 20
127.0000000000001
 30
0.0
 11
0.0
 21
127.0000000000001
 31
0.0
  0
LINE
  5
23A
330
17
100
AcDbEntity
  8
ANCON-CHANNEL
100
AcDbLine
 10
-2.5
 20
113.0000000000001
 30
0.0
 11
0.0
 21
113.0000000000001
 31
0.0
  0
VIEWPORT
  5
95
330
14
100
AcDbEntity
 67
     1
  8
0
100
AcDbViewport
 10
6.124108416547788
 20
4.5
 30
0.0
 40
12.24821683309557
 41
9.0
 68
     1
 69
     1
 12
6.124108416547788
 22
4.5
 13
0.0
 23
0.0
 14
1.0
 24
1.0
 15
0.0
 25
0.0
 16
0.0
 26
0.0
 36
1.0
 17
0.0
 27
0.0
 37
0.0
 42
50.0
 43
0.0
 44
0.0
 45
9.0
 50
0.0
 51
0.0
 72
   100
 90
    32800
  1

281
     0
 71
     1
 74
     0
110
0.0
120
0.0
130
0.0
111
1.0
121
0.0
131
0.0
112
0.0
122
1.0
132
0.0
 79
     0
146
0.0
  0
ENDSEC
  0
SECTION
  2
OBJECTS
  0
DICTIONARY
  5
C
330
0
100
AcDbDictionary
281
     1
  3
ACAD_GROUP
350
D
  3
ACAD_LAYOUT
350
173
  3
ACAD_MLINESTYLE
350
1A
  3
ACAD_PLOTSETTINGS
350
174
  3
ACAD_PLOTSTYLENAME
350
171
  3
ACDBVARIABLEDICTIONARY
350
38
  0
DICTIONARY
  5
D
102
{ACAD_REACTORS
330
C
102
}
330
C
100
AcDbDictionary
281
     1
  0
DICTIONARY
  5
173
102
{ACAD_REACTORS
330
C
102
}
330
C
100
AcDbDictionary
281
     1
  3
Layout1
350
176
  3
Model
350
175
  0
DICTIONARY
  5
1A
102
{ACAD_REACTORS
330
C
102
}
330
C
100
AcDbDictionary
281
     1
  3
STANDARD
350
1B
  0
DICTIONARY
  5
174
102
{ACAD_REACTORS
330
C
102
}
330
C
100
AcDbDictionary
281
     1
  0
ACDBDICTIONARYWDFLT
  5
171
102
{ACAD_REACTORS
330
C
102
}
330
C
100
AcDbDictionary
281
     1
  3
Normal
350
172
100
AcDbDictionaryWithDefault
340
172
  0
DICTIONARY
  5
38
102
{ACAD_REACTORS
330
C
102
}
330
C
100
AcDbDictionary
281
     1
  3
DIMADEC
350
39
  0
LAYOUT
  5
176
102
{ACAD_REACTORS
330
173
102
}
330
173
100
AcDbPlotSettings
  1

  2
Ancon 2
  4

  6

 40
0.0
 41
0.0
 42
0.0
 43
0.0
 44
0.0
 45
0.0
 46
0.0
 47
0.0
 48
0.0
 49
0.0
140
0.0
141
0.0
142
1.0
143
1.0
 70
   688
 72
     0
 73
     0
 74
     5
  7

 75
    16
147
1.0
148
0.0
149
0.0
100
AcDbLayout
  1
Layout1
 70
     1
 71
     1
 10
0.0
 20
0.0
 11
420.0
 21
297.0
 12
0.0
 22
0.0
 32
0.0
 14
1.000000000000000E+20
 24
1.000000000000000E+20
 34
1.000000000000000E+20
 15
-1.000000000000000E+20
 25
-1.000000000000000E+20
 35
-1.000000000000000E+20
146
0.0
 13
0.0
 23
0.0
 33
0.0
 16
1.0
 26
0.0
 36
0.0
 17
0.0
 27
1.0
 37
0.0
 76
     0
330
14
331
95
  0
LAYOUT
  5
175
102
{ACAD_REACTORS
330
173
102
}
330
173
100
AcDbPlotSettings
  1

  2
Ancon 2
  4

  6

 40
0.0
 41
0.0
 42
0.0
 43
0.0
 44
0.0
 45
0.0
 46
0.0
 47
0.0
 48
0.0
 49
0.0
140
0.0
141
0.0
142
1.0
143
1.0
 70
  1712
 72
     0
 73
     0
 74
     0
  7

 75
     0
147
1.0
148
0.0
149
0.0
100
AcDbLayout
  1
Model
 70
     1
 71
     0
 10
0.0
 20
0.0
 11
12.0
 21
9.0
 12
0.0
 22
0.0
 32
0.0
 14
0.0
 24
0.0
 34
0.0
 15
0.0
 25
0.0
 35
0.0
146
0.0
 13
0.0
 23
0.0
 33
0.0
 16
1.0
 26
0.0
 36
0.0
 17
0.0
 27
1.0
 37
0.0
 76
     0
330
17
  0
MLINESTYLE
  5
1B
102
{ACAD_REACTORS
330
1A
102
}
330
1A
100
AcDbMlineStyle
  2
STANDARD
 70
     0
  3

 62
   256
 51
90.0
 52
90.0
 71
     2
 49
0.5
 62
   256
  6
BYLAYER
 49
-0.5
 62
   256
  6
BYLAYER
  0
ACDBPLACEHOLDER
  5
172
102
{ACAD_REACTORS
330
171
102
}
330
171
  0
DICTIONARYVAR
  5
39
102
{ACAD_REACTORS
330
38
102
}
330
38
100
DictionaryVariables
280
     0
  1
4
  0
ENDSEC
  0
EOF
