  0
SECTION
  2
HEADER
  9
$ACADVER
  1
AC1015
  9
$ACADMAINTVER
 70
    10
  9
$DWGCODEPAGE
  3
ANSI_1252
  9
$INSBASE
 10
-4.999999999998636
 20
-0.0000000000011369
 30
0.0
  9
$EXTMIN
 10
-321.7658893616281
 20
-170.0000000000011
 30
0.0
  9
$EXTMAX
 10
710.5353633929324
 20
344.9999999999988
 30
0.0
  9
$LIMMIN
 10
0.0
 20
0.0
  9
$LIMMAX
 10
420.0
 20
297.0
  9
$ORTHOMODE
 70
     1
  9
$REGENMODE
 70
     1
  9
$FILLMODE
 70
     1
  9
$QTEXTMODE
 70
     0
  9
$MIRRTEXT
 70
     1
  9
$LTSCALE
 40
1.0
  9
$ATTMODE
 70
     1
  9
$TEXTSIZE
 40
9.0
  9
$TRACEWID
 40
10.0
  9
$TEXTSTYLE
  7
ROMANS
  9
$CLAYER
  8
ANCON-SUPPORT
  9
$CELTYPE
  6
BYLAYER
  9
$CECOLOR
 62
   256
  9
$CELTSCALE
 40
1.0
  9
$DISPSILH
 70
     0
  9
$DIMSCALE
 40
5.0
  9
$DIMASZ
 40
0.0
  9
$DIMEXO
 40
4.5
  9
$DIMDLI
 40
0.0
  9
$DIMRND
 40
1.0
  9
$DIMDLE
 40
1.25
  9
$DIMEXE
 40
1.5
  9
$DIMTP
 40
0.0
  9
$DIMTM
 40
0.0
  9
$DIMTXT
 40
1.8
  9
$DIMCEN
 40
0.0
  9
$DIMTSZ
 40
1.0
  9
$DIMTOL
 70
     0
  9
$DIMLIM
 70
     0
  9
$DIMTIH
 70
     0
  9
$DIMTOH
 70
     0
  9
$DIMSE1
 70
     0
  9
$DIMSE2
 70
     0
  9
$DIMTAD
 70
     1
  9
$DIMZIN
 70
    12
  9
$DIMBLK
  1

  9
$DIMASO
 70
     1
  9
$DIMSHO
 70
     0
  9
$DIMPOST
  1

  9
$DIMAPOST
  1

  9
$DIMALT
 70
     0
  9
$DIMALTD
 70
     2
  9
$DIMALTF
 40
0.04
  9
$DIMLFAC
 40
1.0
  9
$DIMTOFL
 70
     0
  9
$DIMTVP
 40
0.0
  9
$DIMTIX
 70
     0
  9
$DIMSOXD
 70
     0
  9
$DIMSAH
 70
     0
  9
$DIMBLK1
  1

  9
$DIMBLK2
  1

  9
$DIMSTYLE
  2
1-5
  9
$DIMCLRD
 70
     0
  9
$DIMCLRE
 70
     0
  9
$DIMCLRT
 70
     0
  9
$DIMTFAC
 40
1.25
  9
$DIMGAP
 40
0.1
  9
$DIMJUST
 70
     0
  9
$DIMSD1
 70
     0
  9
$DIMSD2
 70
     0
  9
$DIMTOLJ
 70
     1
  9
$DIMTZIN
 70
    12
  9
$DIMALTZ
 70
    12
  9
$DIMALTTZ
 70
    12
  9
$DIMUPT
 70
     0
  9
$DIMDEC
 70
     2
  9
$DIMTDEC
 70
     2
  9
$DIMALTU
 70
     2
  9
$DIMALTTD
 70
     2
  9
$DIMTXSTY
  7
ROMANS
  9
$DIMAUNIT
 70
     0
  9
$DIMADEC
 70
     0
  9
$DIMALTRND
 40
0.0
  9
$DIMAZIN
 70
     0
  9
$DIMDSEP
 70
    46
  9
$DIMATFIT
 70
     3
  9
$DIMFRAC
 70
     0
  9
$DIMLDRBLK
  1

  9
$DIMLUNIT
 70
     2
  9
$DIMLWD
 70
    -2
  9
$DIMLWE
 70
    -2
  9
$DIMTMOVE
 70
     2
  9
$LUNITS
 70
     2
  9
$LUPREC
 70
     2
  9
$SKETCHINC
 40
0.0
  9
$FILLETRAD
 40
10.0
  9
$AUNITS
 70
     0
  9
$AUPREC
 70
     4
  9
$MENU
  1
C:\ACADWIN\SUPPORT\ACAD
  9
$ELEVATION
 40
0.0
  9
$PELEVATION
 40
0.0
  9
$THICKNESS
 40
0.0
  9
$LIMCHECK
 70
     0
  9
$CHAMFERA
 40
0.0
  9
$CHAMFERB
 40
0.0
  9
$CHAMFERC
 40
0.0
  9
$CHAMFERD
 40
0.0
  9
$SKPOLY
 70
     0
  9
$TDCREATE
 40
2450427.482995949
  9
$TDUCREATE
 40
2450427.441329282
  9
$TDUPDATE
 40
2452487.849251736
  9
$TDUUPDATE
 40
2452487.807585069
  9
$TDINDWG
 40
0.2219373843
  9
$TDUSRTIMER
 40
0.2219373843
  9
$USRTIMER
 70
     1
  9
$ANGBASE
 50
0.0
  9
$ANGDIR
 70
     0
  9
$PDMODE
 70
     0
  9
$PDSIZE
 40
0.0
  9
$PLINEWID
 40
0.0
  9
$SPLFRAME
 70
     0
  9
$SPLINETYPE
 70
     6
  9
$SPLINESEGS
 70
     8
  9
$HANDSEED
  5
14A
  9
$SURFTAB1
 70
    18
  9
$SURFTAB2
 70
    18
  9
$SURFTYPE
 70
     6
  9
$SURFU
 70
    18
  9
$SURFV
 70
    18
  9
$UCSBASE
  2

  9
$UCSNAME
  2

  9
$UCSORG
 10
0.0
 20
0.0
 30
0.0
  9
$UCSXDIR
 10
1.0
 20
0.0
 30
0.0
  9
$UCSYDIR
 10
0.0
 20
1.0
 30
0.0
  9
$UCSORTHOREF
  2

  9
$UCSORTHOVIEW
 70
     0
  9
$UCSORGTOP
 10
0.0
 20
0.0
 30
0.0
  9
$UCSORGBOTTOM
 10
0.0
 20
0.0
 30
0.0
  9
$UCSORGLEFT
 10
0.0
 20
0.0
 30
0.0
  9
$UCSORGRIGHT
 10
0.0
 20
0.0
 30
0.0
  9
$UCSORGFRONT
 10
0.0
 20
0.0
 30
0.0
  9
$UCSORGBACK
 10
0.0
 20
0.0
 30
0.0
  9
$PUCSBASE
  2

  9
$PUCSNAME
  2

  9
$PUCSORG
 10
0.0
 20
0.0
 30
0.0
  9
$PUCSXDIR
 10
1.0
 20
0.0
 30
0.0
  9
$PUCSYDIR
 10
0.0
 20
1.0
 30
0.0
  9
$PUCSORTHOREF
  2

  9
$PUCSORTHOVIEW
 70
     0
  9
$PUCSORGTOP
 10
0.0
 20
0.0
 30
0.0
  9
$PUCSORGBOTTOM
 10
0.0
 20
0.0
 30
0.0
  9
$PUCSORGLEFT
 10
0.0
 20
0.0
 30
0.0
  9
$PUCSORGRIGHT
 10
0.0
 20
0.0
 30
0.0
  9
$PUCSORGFRONT
 10
0.0
 20
0.0
 30
0.0
  9
$PUCSORGBACK
 10
0.0
 20
0.0
 30
0.0
  9
$USERI1
 70
     0
  9
$USERI2
 70
     0
  9
$USERI3
 70
     0
  9
$USERI4
 70
     0
  9
$USERI5
 70
     0
  9
$USERR1
 40
0.0
  9
$USERR2
 40
0.0
  9
$USERR3
 40
0.0
  9
$USERR4
 40
0.0
  9
$USERR5
 40
0.0
  9
$WORLDVIEW
 70
     1
  9
$SHADEDGE
 70
     3
  9
$SHADEDIF
 70
    70
  9
$TILEMODE
 70
     1
  9
$MAXACTVP
 70
    16
  9
$PINSBASE
 10
0.0
 20
0.0
 30
0.0
  9
$PLIMCHECK
 70
     0
  9
$PEXTMIN
 10
1.000000000000000E+20
 20
1.000000000000000E+20
 30
1.000000000000000E+20
  9
$PEXTMAX
 10
-1.000000000000000E+20
 20
-1.000000000000000E+20
 30
-1.000000000000000E+20
  9
$PLIMMIN
 10
0.0
 20
0.0
  9
$PLIMMAX
 10
420.0
 20
297.0
  9
$UNITMODE
 70
     0
  9
$VISRETAIN
 70
     0
  9
$PLINEGEN
 70
     0
  9
$PSLTSCALE
 70
     1
  9
$TREEDEPTH
 70
  3020
  9
$CMLSTYLE
  2
STANDARD
  9
$CMLJUST
 70
     0
  9
$CMLSCALE
 40
1.0
  9
$PROXYGRAPHICS
 70
     1
  9
$MEASUREMENT
 70
     0
  9
$CELWEIGHT
370
    -1
  9
$ENDCAPS
280
     0
  9
$JOINSTYLE
280
     0
  9
$LWDISPLAY
290
     0
  9
$INSUNITS
 70
     0
  9
$HYPERLINKBASE
  1

  9
$STYLESHEET
  1

  9
$XEDIT
290
     1
  9
$CEPSNTYPE
380
     0
  9
$PSTYLEMODE
290
     1
  9
$FINGERPRINTGUID
  2
{092F0D79-A3F2-11D6-AAC6-0010A4A25215}
  9
$VERSIONGUID
  2
{9E6D1A82-A4BE-11D6-AAC6-0010A4A25215}
  9
$EXTNAMES
290
     1
  9
$PSVPSCALE
 40
0.0
  9
$OLESTARTUP
290
     0
  0
ENDSEC
  0
SECTION
  2
CLASSES
  0
CLASS
  1
DICTIONARYVAR
  2
AcDbDictionaryVar
  3
AutoCAD 2000
 90
    32768
280
     0
281
     0
  0
CLASS
  1
LWPOLYLINE
  2
AcDbPolyline
  3
AutoCAD 2000
 90
    32768
280
     0
281
     1
  0
CLASS
  1
ACDBDICTIONARYWDFLT
  2
AcDbDictionaryWithDefault
  3
AutoCAD 2000
 90
        0
280
     0
281
     0
  0
CLASS
  1
ACDBPLACEHOLDER
  2
AcDbPlaceHolder
  3
AutoCAD 2000
 90
        0
280
     0
281
     0
  0
CLASS
  1
LAYOUT
  2
AcDbLayout
  3
AutoCAD 2000
 90
        0
280
     0
281
     0
  0
ENDSEC
  0
SECTION
  2
TABLES
  0
TABLE
  2
VPORT
  5
19
330
0
100
AcDbSymbolTable
 70
     2
  0
VPORT
  5
149
330
19
100
AcDbSymbolTableRecord
100
AcDbViewportTableRecord
  2
*Active
 70
     0
 10
0.0
 20
0.0
 11
1.0
 21
1.0
 12
181.7930443398861
 22
77.59285714485179
 13
0.0
 23
0.0
 14
5.0
 24
5.0
 15
10.0
 25
10.0
 16
0.0
 26
0.0
 36
1.0
 17
0.0
 27
0.0
 37
0.0
 40
645.7261742984747
 41
1.760948905109489
 42
50.0
 43
0.0
 44
0.0
 50
0.0
 51
0.0
 71
     0
 72
 20000
 73
     1
 74
     1
 75
     0
 76
     0
 77
     0
 78
     0
281
     0
 65
     1
110
0.0
120
0.0
130
0.0
111
1.0
121
0.0
131
0.0
112
0.0
122
1.0
132
0.0
 79
     0
146
0.0
  0
ENDTAB
  0
TABLE
  2
LTYPE
  5
14
330
0
100
AcDbSymbolTable
 70
     1
  0
LTYPE
  5
15
330
14
100
AcDbSymbolTableRecord
100
AcDbLinetypeTableRecord
  2
BYBLOCK
 70
     0
  3

 72
    65
 73
     0
 40
0.0
  0
LTYPE
  5
16
330
14
100
AcDbSymbolTableRecord
100
AcDbLinetypeTableRecord
  2
BYLAYER
 70
     0
  3

 72
    65
 73
     0
 40
0.0
  0
LTYPE
  5
8
330
14
100
AcDbSymbolTableRecord
100
AcDbLinetypeTableRecord
  2
CONTINUOUS
 70
     0
  3
Solid line
 72
    65
 73
     0
 40
0.0
  0
ENDTAB
  0
TABLE
  2
LAYER
  5
10
330
0
100
AcDbSymbolTable
 70
    11
  0
LAYER
  5
4
330
10
100
AcDbSymbolTableRecord
100
AcDbLayerTableRecord
  2
0
 70
     0
 62
     7
  6
CONTINUOUS
370
    -3
390
5
  0
LAYER
  5
24
330
10
100
AcDbSymbolTableRecord
100
AcDbLayerTableRecord
  2
ANCON-SUPPORT
 70
     0
 62
     3
  6
CONTINUOUS
370
    -3
390
5
  0
LAYER
  5
F2
330
10
100
AcDbSymbolTableRecord
100
AcDbLayerTableRecord
  2
ANCON-STRUC
 70
     0
 62
     2
  6
CONTINUOUS
370
    -3
390
5
  0
LAYER
  5
D7
330
10
100
AcDbSymbolTableRecord
100
AcDbLayerTableRecord
  2
ANCON-MASONRY
 70
     0
 62
     1
  6
CONTINUOUS
370
    -3
390
5
  0
LAYER
  5
116
330
10
100
AcDbSymbolTableRecord
100
AcDbLayerTableRecord
  2
DEFPOINTS
 70
     0
 62
     7
  6
CONTINUOUS
290
     0
370
    -3
390
5
  0
LAYER
  5
10B
330
10
100
AcDbSymbolTableRecord
100
AcDbLayerTableRecord
  2
ANCON-DIM
 70
     0
 62
     1
  6
CONTINUOUS
370
    -3
390
5
  0
LAYER
  5
CD
330
10
100
AcDbSymbolTableRecord
100
AcDbLayerTableRecord
  2
ANCON-TEXT
 70
     0
 62
     6
  6
CONTINUOUS
370
    -3
390
5
  0
LAYER
  5
D5
330
10
100
AcDbSymbolTableRecord
100
AcDbLayerTableRecord
  2
ANCON-TIE
 70
     0
 62
     1
  6
CONTINUOUS
370
    -3
390
5
  0
LAYER
  5
27
330
10
100
AcDbSymbolTableRecord
100
AcDbLayerTableRecord
  2
ANCON-CHANNEL
 70
     0
 62
     1
  6
CONTINUOUS
370
    -3
390
5
  0
LAYER
  5
CA
330
10
100
AcDbSymbolTableRecord
100
AcDbLayerTableRecord
  2
GENTEXT
 70
     0
 62
     2
  6
CONTINUOUS
370
    -3
390
5
  0
LAYER
  5
C5
330
10
100
AcDbSymbolTableRecord
100
AcDbLayerTableRecord
  2
DIMENSIONS
 70
     0
 62
     2
  6
CONTINUOUS
370
    -3
390
5
  0
ENDTAB
  0
TABLE
  2
STYLE
  5
11
330
0
100
AcDbSymbolTable
 70
     2
  0
STYLE
  5
12
330
11
100
AcDbSymbolTableRecord
100
AcDbTextStyleTableRecord
  2
STANDARD
 70
     0
 40
0.0
 41
1.0
 50
0.0
 71
     0
 42
3.0
  3
txt.shx
  4

  0
STYLE
  5
1F
330
11
100
AcDbSymbolTableRecord
100
AcDbTextStyleTableRecord
  2
ROMANS
 70
     0
 40
0.0
 41
1.0
 50
0.0
 71
     0
 42
9.0
  3
romans
  4

  0
ENDTAB
  0
TABLE
  2
VIEW
  5
17
330
0
100
AcDbSymbolTable
 70
     0
  0
ENDTAB
  0
TABLE
  2
UCS
  5
18
330
0
100
AcDbSymbolTable
 70
     0
  0
ENDTAB
  0
TABLE
  2
APPID
  5
1B
330
0
100
AcDbSymbolTable
 70
     1
  0
APPID
  5
1C
330
1B
100
AcDbSymbolTableRecord
100
AcDbRegAppTableRecord
  2
ACAD
 70
     0
  0
ENDTAB
  0
TABLE
  2
DIMSTYLE
  5
1D
330
0
100
AcDbSymbolTable
 70
     1
100
AcDbDimStyleTable
 71
     1
340
1E
  0
DIMSTYLE
105
1E
102
{ACAD_REACTORS
330
12C
330
10D
102
}
330
1D
100
AcDbSymbolTableRecord
100
AcDbDimStyleTableRecord
  2
1-5
 70
     0
 40
5.0
 41
0.0
 42
4.5
 43
0.0
 44
1.5
 45
1.0
 46
1.25
 73
     0
 74
     0
 77
     1
 78
    12
140
1.8
141
0.0
142
1.0
143
0.04
146
1.25
147
0.1
271
     2
272
     2
279
     2
284
    12
285
    12
286
    12
340
1F
  0
ENDTAB
  0
TABLE
  2
BLOCK_RECORD
  5
1
330
0
100
AcDbSymbolTable
 70
     2
  0
BLOCK_RECORD
  5
2
330
1
100
AcDbSymbolTableRecord
100
AcDbBlockTableRecord
  2
*MODEL_SPACE
340
A
  0
BLOCK_RECORD
  5
C
330
1
100
AcDbSymbolTableRecord
100
AcDbBlockTableRecord
  2
*PAPER_SPACE
340
F
  0
BLOCK_RECORD
  5
12D
330
1
100
AcDbSymbolTableRecord
100
AcDbBlockTableRecord
  2
*D0
340
0
  0
BLOCK_RECORD
  5
10E
330
1
100
AcDbSymbolTableRecord
100
AcDbBlockTableRecord
  2
*D1
340
0
  0
ENDTAB
  0
ENDSEC
  0
SECTION
  2
BLOCKS
  0
BLOCK
  5
3
330
2
100
AcDbEntity
  8
0
100
AcDbBlockBegin
  2
*MODEL_SPACE
 70
     0
 10
0.0
 20
0.0
 30
0.0
  3
*MODEL_SPACE
  1

  0
ENDBLK
  5
9
330
2
100
AcDbEntity
  8
0
100
AcDbBlockEnd
  0
BLOCK
  5
D
330
C
100
AcDbEntity
 67
     1
  8
0
100
AcDbBlockBegin
  2
*PAPER_SPACE
 70
     0
 10
0.0
 20
0.0
 30
0.0
  3
*PAPER_SPACE
  1

  0
ENDBLK
  5
E
330
C
100
AcDbEntity
 67
     1
  8
0
100
AcDbBlockEnd
  0
BLOCK
  5
137
330
12D
100
AcDbEntity
  8
0
100
AcDbBlockBegin
  2
*D0
 70
     1
 10
0.0
 20
0.0
 30
0.0
  3
*D0
  1

  0
LINE
  5
12E
330
12D
100
AcDbEntity
  8
0
  6
ByBlock
 62
     0
100
AcDbLine
 10
985.4748576066231
 20
113.5928778237759
 30
0.0
 11
966.0657357241506
 21
113.5928778237759
 31
0.0
  0
LINE
  5
12F
330
12D
100
AcDbEntity
  8
0
  6
ByBlock
 62
     0
100
AcDbLine
 10
985.4748576066231
 20
-16.40712217622407
 30
0.0
 11
966.0657357241506
 21
-16.40712217622407
 31
0.0
  0
LINE
  5
130
330
12D
100
AcDbEntity
  8
0
  6
ByBlock
 62
     0
100
AcDbLine
 10
973.5657357241505
 20
119.8428778237759
 30
0.0
 11
973.5657357241505
 21
-22.65712217622407
 31
0.0
  0
LINE
  5
131
330
12D
100
AcDbEntity
  8
0
  6
ByBlock
 62
     0
100
AcDbLine
 10
978.5657357241506
 20
108.5928778237759
 30
0.0
 11
968.5657357241506
 21
118.5928778237759
 31
0.0
  0
LINE
  5
132
330
12D
100
AcDbEntity
  8
0
  6
ByBlock
 62
     0
100
AcDbLine
 10
978.5657357241506
 20
-21.40712217622407
 30
0.0
 11
968.5657357241506
 21
-11.40712217622407
 31
0.0
  0
TEXT
  5
133
330
12D
100
AcDbEntity
  8
0
  6
ByBlock
 62
     0
100
AcDbText
 10
969.0657357241505
 20
17.73573496663309
 30
0.0
 40
9.0
  1
130 Min.
 50
90.0
  7
ROMANS
 72
     1
 11
964.5657357241505
 21
48.59287782377595
 31
0.0
100
AcDbText
 73
     2
  0
POINT
  5
134
330
12D
100
AcDbEntity
  8
DEFPOINTS
  6
ByBlock
 62
     0
100
AcDbPoint
 10
1007.974857606623
 20
113.5928778237759
 30
0.0
  0
POINT
  5
135
330
12D
100
AcDbEntity
  8
DEFPOINTS
  6
ByBlock
 62
     0
100
AcDbPoint
 10
1007.974857606623
 20
-16.40712217622407
 30
0.0
  0
POINT
  5
136
330
12D
100
AcDbEntity
  8
DEFPOINTS
  6
ByBlock
 62
     0
100
AcDbPoint
 10
973.5657357241505
 20
-16.40712217622407
 30
0.0
  0
ENDBLK
  5
138
330
12D
100
AcDbEntity
  8
0
100
AcDbBlockEnd
  0
BLOCK
  5
119
330
10E
100
AcDbEntity
  8
0
100
AcDbBlockBegin
  2
*D1
 70
     1
 10
0.0
 20
0.0
 30
0.0
  3
*D1
  1

  0
LINE
  5
10F
330
10E
100
AcDbEntity
  8
0
  6
ByBlock
 62
     0
100
AcDbLine
 10
1281.83162508578
 20
-33.90712217622396
 30
0.0
 11
1281.83162508578
 21
-119.9828722834173
 31
0.0
  0
LINE
  5
110
330
10E
100
AcDbEntity
  8
0
  6
ByBlock
 62
     0
100
AcDbLine
 10
1181.83162508578
 20
-51.60712217622407
 30
0.0
 11
1181.83162508578
 21
-119.9828722834173
 31
0.0
  0
LINE
  5
111
330
10E
100
AcDbEntity
  8
0
  6
ByBlock
 62
     0
100
AcDbLine
 10
1288.08162508578
 20
-112.4828722834173
 30
0.0
 11
1175.58162508578
 21
-112.4828722834173
 31
0.0
  0
LINE
  5
112
330
10E
100
AcDbEntity
  8
0
  6
ByBlock
 62
     0
100
AcDbLine
 10
1276.83162508578
 20
-117.4828722834173
 30
0.0
 11
1286.83162508578
 21
-107.4828722834173
 31
0.0
  0
LINE
  5
113
330
10E
100
AcDbEntity
  8
0
  6
ByBlock
 62
     0
100
AcDbLine
 10
1176.83162508578
 20
-117.4828722834173
 30
0.0
 11
1186.83162508578
 21
-107.4828722834173
 31
0.0
  0
TEXT
  5
114
330
10E
100
AcDbEntity
  8
0
  6
ByBlock
 62
     0
100
AcDbText
 10
1199.045910800066
 20
-107.9828722834173
 30
0.0
 40
9.0
  1
100 Max.
  7
ROMANS
 72
     1
 11
1231.83162508578
 21
-103.4828722834173
 31
0.0
100
AcDbText
 73
     2
  0
POINT
  5
115
330
10E
100
AcDbEntity
  8
DEFPOINTS
  6
ByBlock
 62
     0
100
AcDbPoint
 10
1281.83162508578
 20
-11.40712217622396
 30
0.0
  0
POINT
  5
117
330
10E
100
AcDbEntity
  8
DEFPOINTS
  6
ByBlock
 62
     0
100
AcDbPoint
 10
1181.83162508578
 20
-29.10712217622407
 30
0.0
  0
POINT
  5
118
330
10E
100
AcDbEntity
  8
DEFPOINTS
  6
ByBlock
 62
     0
100
AcDbPoint
 10
1181.83162508578
 20
-112.4828722834173
 30
0.0
  0
ENDBLK
  5
11A
330
10E
100
AcDbEntity
  8
0
100
AcDbBlockEnd
  0
ENDSEC
  0
SECTION
  2
ENTITIES
  0
LINE
  5
26
330
2
100
AcDbEntity
  8
ANCON-CHANNEL
100
AcDbLine
 10
-82.85681349337892
 20
30.12326764564738
 30
0.0
 11
-82.85681349337982
 21
25.12326764564738
 31
0.0
  0
LINE
  5
28
330
2
100
AcDbEntity
  8
ANCON-CHANNEL
100
AcDbLine
 10
-65.6826433885285
 20
25.12326764564716
 30
0.0
 11
-82.85681349337892
 21
25.12326764564716
 31
0.0
  0
LINE
  5
29
330
2
100
AcDbEntity
  8
ANCON-CHANNEL
100
AcDbLine
 10
-65.6826433885285
 20
30.12326764564716
 30
0.0
 11
-82.85681349337892
 21
30.12326764564716
 31
0.0
  0
ARC
  5
2A
330
2
100
AcDbEntity
  8
ANCON-CHANNEL
100
AcDbCircle
 10
-3.999999999998635
 20
125.9999999999988
 30
0.0
 40
3.0
100
AcDbArc
 50
0.0
 51
135.0
  0
LINE
  5
2B
330
2
100
AcDbEntity
  8
ANCON-CHANNEL
100
AcDbLine
 10
-17.72792206135636
 20
124.9999999999989
 30
0.0
 11
-14.19238815542348
 21
121.4644660940663
 31
0.0
  0
LINE
  5
2C
330
2
100
AcDbEntity
  8
ANCON-CHANNEL
100
AcDbLine
 10
-6.121320343558181
 20
128.1213203435584
 30
0.0
 11
-22.38871686054017
 21
111.8539238265766
 31
0.0
  0
LINE
  5
2D
330
2
100
AcDbEntity
  8
ANCON-CHANNEL
100
AcDbLine
 10
-6.828427124744848
 20
128.8284271247449
 30
0.0
 11
-23.09582364172638
 21
112.561030607763
 31
0.0
  0
LINE
  5
2E
330
2
100
AcDbEntity
  8
ANCON-CHANNEL
100
AcDbLine
 10
-17.72792206135636
 20
124.9999999999988
 30
0.0
 11
-31.24264068711818
 21
111.4852813742369
 31
0.0
  0
LINE
  5
2F
330
2
100
AcDbEntity
  8
ANCON-CHANNEL
100
AcDbLine
 10
-14.19238815542348
 20
121.4644660940663
 30
0.0
 11
-27.7071067811853
 21
107.9497474683042
 31
0.0
  0
ARC
  5
30
330
2
100
AcDbEntity
  8
ANCON-CHANNEL
100
AcDbCircle
 10
-3.999999999998635
 20
125.9999999999988
 30
0.0
 40
4.0
100
AcDbArc
 50
0.0
 51
135.0
  0
LINE
  5
31
330
2
100
AcDbEntity
  8
ANCON-CHANNEL
100
AcDbLine
 10
0.0000000000013642
 20
86.99999999999887
 30
0.0
 11
0.0000000000013642
 21
125.9999999999988
 31
0.0
  0
LINE
  5
32
330
2
100
AcDbEntity
  8
ANCON-CHANNEL
100
AcDbLine
 10
-0.9999999999986357
 20
86.99999999999887
 30
0.0
 11
-0.9999999999986357
 21
125.9999999999988
 31
0.0
  0
LINE
  5
33
330
2
100
AcDbEntity
  8
ANCON-CHANNEL
100
AcDbLine
 10
-23.09582364172638
 20
112.561030607763
 30
0.0
 11
-22.38871686054017
 21
111.8539238265766
 31
0.0
  0
ARC
  5
34
330
2
100
AcDbEntity
  8
ANCON-CHANNEL
100
AcDbCircle
 10
-5.999999999998635
 20
88.99999999999886
 30
0.0
 40
2.0
100
AcDbArc
 50
0.0
 51
90.0
  0
ARC
  5
35
330
2
100
AcDbEntity
  8
ANCON-CHANNEL
100
AcDbCircle
 10
-5.999999999998635
 20
88.99999999999886
 30
0.0
 40
5.0
100
AcDbArc
 50
0.0
 51
90.0
  0
LINE
  5
36
330
2
100
AcDbEntity
  8
ANCON-CHANNEL
100
AcDbLine
 10
-3.999999999998635
 20
88.99999999999886
 30
0.0
 11
-11.99999999999863
 21
88.99999999999886
 31
0.0
  0
LINE
  5
37
330
2
100
AcDbEntity
  8
ANCON-CHANNEL
100
AcDbLine
 10
-5.999999999998635
 20
90.99999999999885
 30
0.0
 11
-11.99999999999863
 21
90.99999999999885
 31
0.0
  0
LINE
  5
38
330
2
100
AcDbEntity
  8
ANCON-CHANNEL
100
AcDbLine
 10
-5.999999999998635
 20
93.99999999999886
 30
0.0
 11
-11.99999999999863
 21
93.99999999999886
 31
0.0
  0
ARC
  5
39
330
2
100
AcDbEntity
  8
ANCON-CHANNEL
100
AcDbCircle
 10
-26.99999999999909
 20
107.2426406871177
 30
0.0
 40
1.0
100
AcDbArc
 50
135.0
 51
180.0
  0
SOLID
  5
3A
330
2
100
AcDbEntity
  8
ANCON-CHANNEL
100
AcDbTrace
 10
-0.9999999999986357
 20
85.99999999999885
 30
0.0
 11
-0.9999999999986357
 21
86.99999999999887
 31
0.0
 12
0.0000000000013642
 22
86.99999999999887
 32
0.0
 13
0.0000000000013642
 23
86.99999999999887
 33
0.0
  0
LINE
  5
3B
330
2
100
AcDbEntity
  8
ANCON-CHANNEL
100
AcDbLine
 10
0.0000000000013642
 20
86.99999999999887
 30
0.0
 11
-0.9999999999986357
 21
85.99999999999885
 31
0.0
  0
LINE
  5
3C
330
2
100
AcDbEntity
  8
ANCON-CHANNEL
100
AcDbLine
 10
-0.9999999999986357
 20
86.99999999999887
 30
0.0
 11
0.0000000000013642
 21
86.99999999999887
 31
0.0
  0
LINE
  5
3D
330
2
100
AcDbEntity
  8
ANCON-CHANNEL
100
AcDbLine
 10
-0.9999999999986357
 20
83.99999999999886
 30
0.0
 11
-3.999999999998635
 21
83.99999999999886
 31
0.0
  0
LINE
  5
3E
330
2
100
AcDbEntity
  8
ANCON-CHANNEL
100
AcDbLine
 10
-3.999999999998635
 20
80.99999999999875
 30
0.0
 11
0.0000000000013642
 21
80.99999999999875
 31
0.0
  0
LINE
  5
3F
330
2
100
AcDbEntity
  8
ANCON-CHANNEL
100
AcDbLine
 10
-3.999999999998635
 20
79.99999999999875
 30
0.0
 11
0.0000000000013642
 21
79.99999999999875
 31
0.0
  0
LINE
  5
40
330
2
100
AcDbEntity
  8
ANCON-CHANNEL
100
AcDbLine
 10
-0.9999999999986357
 20
65.99999999999886
 30
0.0
 11
-3.999999999998635
 21
65.99999999999886
 31
0.0
  0
LINE
  5
41
330
2
100
AcDbEntity
  8
ANCON-CHANNEL
100
AcDbLine
 10
-3.999999999998635
 20
68.99999999999875
 30
0.0
 11
0.0000000000013642
 21
68.99999999999875
 31
0.0
  0
LINE
  5
42
330
2
100
AcDbEntity
  8
ANCON-CHANNEL
100
AcDbLine
 10
-3.999999999998635
 20
69.99999999999875
 30
0.0
 11
0.0000000000013642
 21
69.99999999999875
 31
0.0
  0
LINE
  5
43
330
2
100
AcDbEntity
  8
ANCON-CHANNEL
100
AcDbLine
 10
-3.999999999998635
 20
83.99999999999886
 30
0.0
 11
-3.999999999998635
 21
65.99999999999886
 31
0.0
  0
SOLID
  5
44
330
2
100
AcDbEntity
  8
ANCON-CHANNEL
100
AcDbTrace
 10
-0.9999999999986357
 20
62.99999999999887
 30
0.0
 11
-0.9999999999986357
 21
63.99999999999886
 31
0.0
 12
0.0000000000013642
 22
62.99999999999887
 32
0.0
 13
0.0000000000013642
 23
62.99999999999887
 33
0.0
  0
LINE
  5
45
330
2
100
AcDbEntity
  8
ANCON-CHANNEL
100
AcDbLine
 10
-0.9999999999986357
 20
63.99999999999886
 30
0.0
 11
0.0000000000013642
 21
62.99999999999887
 31
0.0
  0
LINE
  5
46
330
2
100
AcDbEntity
  8
ANCON-CHANNEL
100
AcDbLine
 10
-0.9999999999986357
 20
62.99999999999887
 30
0.0
 11
0.0000000000013642
 21
62.99999999999887
 31
0.0
  0
ARC
  5
47
330
2
100
AcDbEntity
  8
ANCON-CHANNEL
100
AcDbCircle
 10
-5.999999999998635
 20
60.99999999999886
 30
0.0
 40
5.0
100
AcDbArc
 50
270.0
 51
0.0
  0
ARC
  5
48
330
2
100
AcDbEntity
  8
ANCON-CHANNEL
100
AcDbCircle
 10
-5.999999999998635
 20
60.99999999999886
 30
0.0
 40
2.0
100
AcDbArc
 50
270.0
 51
0.0
  0
LINE
  5
49
330
2
100
AcDbEntity
  8
ANCON-CHANNEL
100
AcDbLine
 10
-3.999999999998635
 20
60.99999999999886
 30
0.0
 11
-11.99999999999863
 21
60.99999999999886
 31
0.0
  0
LINE
  5
4A
330
2
100
AcDbEntity
  8
ANCON-CHANNEL
100
AcDbLine
 10
-5.999999999998635
 20
58.99999999999886
 30
0.0
 11
-11.99999999999863
 21
58.99999999999886
 31
0.0
  0
LINE
  5
4B
330
2
100
AcDbEntity
  8
ANCON-CHANNEL
100
AcDbLine
 10
-5.999999999998635
 20
55.99999999999886
 30
0.0
 11
-11.99999999999863
 21
55.99999999999886
 31
0.0
  0
LINE
  5
4C
330
2
100
AcDbEntity
  8
ANCON-CHANNEL
100
AcDbLine
 10
-0.9999999999986357
 20
60.99999999999886
 30
0.0
 11
-0.9999999999986357
 21
65.99999999999886
 31
0.0
  0
LINE
  5
4D
330
2
100
AcDbEntity
  8
ANCON-CHANNEL
100
AcDbLine
 10
-3.999999999998635
 20
60.99999999999886
 30
0.0
 11
-3.999999999998635
 21
65.99999999999886
 31
0.0
  0
LINE
  5
4E
330
2
100
AcDbEntity
  8
ANCON-CHANNEL
100
AcDbLine
 10
-0.9999999999986357
 20
83.99999999999886
 30
0.0
 11
-0.9999999999986357
 21
88.99999999999886
 31
0.0
  0
LINE
  5
4F
330
2
100
AcDbEntity
  8
ANCON-CHANNEL
100
AcDbLine
 10
-3.999999999998635
 20
83.99999999999886
 30
0.0
 11
-3.999999999998635
 21
88.99999999999886
 31
0.0
  0
ARC
  5
50
330
2
100
AcDbEntity
  8
ANCON-CHANNEL
100
AcDbCircle
 10
-26.99999999999909
 20
107.2426406871177
 30
0.0
 40
6.0
100
AcDbArc
 50
135.0
 51
180.0
  0
ARC
  5
51
330
2
100
AcDbEntity
  8
ANCON-CHANNEL
100
AcDbCircle
 10
-65.6826433885285
 20
50.80591103417692
 30
0.0
 40
20.68264338852964
100
AcDbArc
 50
270.0
 51
0.0
  0
ARC
  5
52
330
2
100
AcDbEntity
  8
ANCON-CHANNEL
100
AcDbCircle
 10
-65.6826433885285
 20
50.80591103417692
 30
0.0
 40
25.68264338852964
100
AcDbArc
 50
270.0
 51
0.0
  0
LINE
  5
53
330
2
100
AcDbEntity
  8
ANCON-CHANNEL
100
AcDbLine
 10
-32.99999999999863
 20
7.999999999998863
 30
0.0
 11
-32.99999999999863
 21
55.01471862576067
 31
0.0
  0
LINE
  5
54
330
2
100
AcDbEntity
  8
ANCON-CHANNEL
100
AcDbLine
 10
-27.99999999999863
 20
7.999999999998863
 30
0.0
 11
-27.99999999999863
 21
55.01471862576079
 31
0.0
  0
LINE
  5
55
330
2
100
AcDbEntity
  8
ANCON-CHANNEL
100
AcDbLine
 10
-0.9999999999986357
 20
4.999999999998863
 30
0.0
 11
-0.9999999999986357
 21
62.99999999999887
 31
0.0
  0
LINE
  5
56
330
2
100
AcDbEntity
  8
ANCON-CHANNEL
100
AcDbLine
 10
0.0000000000013642
 20
4.999999999998863
 30
0.0
 11
0.0000000000013642
 21
62.99999999999887
 31
0.0
  0
ARC
  5
57
330
2
100
AcDbEntity
  8
ANCON-CHANNEL
100
AcDbCircle
 10
-4.999999999998635
 20
4.999999999998863
 30
0.0
 40
4.0
100
AcDbArc
 50
270.0
 51
0.0
  0
ARC
  5
58
330
2
100
AcDbEntity
  8
ANCON-CHANNEL
100
AcDbCircle
 10
-4.999999999998635
 20
4.999999999998863
 30
0.0
 40
5.0
100
AcDbArc
 50
270.0
 51
0.0
  0
LINE
  5
59
330
2
100
AcDbEntity
  8
ANCON-CHANNEL
100
AcDbLine
 10
-52.99999999999863
 20
0.9999999999988631
 30
0.0
 11
-52.99999999999863
 21
5.999999999998749
 31
0.0
  0
LINE
  5
5A
330
2
100
AcDbEntity
  8
ANCON-CHANNEL
100
AcDbLine
 10
-52.99999999999863
 20
0.9999999999987494
 30
0.0
 11
-34.99999999999863
 21
0.9999999999988631
 31
0.0
  0
LINE
  5
5B
330
2
100
AcDbEntity
  8
ANCON-CHANNEL
100
AcDbLine
 10
-52.99999999999863
 20
5.999999999998749
 30
0.0
 11
-34.99999999999863
 21
5.999999999998863
 31
0.0
  0
ARC
  5
5C
330
2
100
AcDbEntity
  8
ANCON-CHANNEL
100
AcDbCircle
 10
-34.99999999999863
 20
7.999999999998863
 30
0.0
 40
2.0
100
AcDbArc
 50
270.0
 51
0.0
  0
ARC
  5
5D
330
2
100
AcDbEntity
  8
ANCON-CHANNEL
100
AcDbCircle
 10
-34.99999999999863
 20
7.999999999998863
 30
0.0
 40
7.0
100
AcDbArc
 50
270.0
 51
0.0
  0
LINE
  5
5E
330
2
100
AcDbEntity
  8
ANCON-CHANNEL
100
AcDbLine
 10
-199.9999999999986
 20
0.9999999999987494
 30
0.0
 11
-199.9999999999986
 21
-0.0000000000012506
 31
0.0
  0
LINE
  5
5F
330
2
100
AcDbEntity
  8
ANCON-CHANNEL
100
AcDbLine
 10
-199.9999999999986
 20
-0.0000000000012506
 30
0.0
 11
-4.999999999998635
 21
-0.0000000000012506
 31
0.0
  0
LINE
  5
60
330
2
100
AcDbEntity
  8
ANCON-CHANNEL
100
AcDbLine
 10
-199.9999999999986
 20
0.9999999999987494
 30
0.0
 11
-4.999999999998635
 21
0.9999999999988631
 31
0.0
  0
ARC
  5
61
330
2
100
AcDbEntity
  8
ANCON-CHANNEL
100
AcDbCircle
 10
-26.99999999999863
 20
94.98528137423738
 30
0.0
 40
1.0
100
AcDbArc
 50
180.0
 51
225.0
  0
LINE
  5
62
330
2
100
AcDbEntity
  8
ANCON-CHANNEL
100
AcDbLine
 10
-27.99999999999863
 20
94.98528137423738
 30
0.0
 11
-27.99999999999909
 21
107.2426406871177
 31
0.0
  0
LINE
  5
63
330
2
100
AcDbEntity
  8
ANCON-CHANNEL
100
AcDbLine
 10
-14.99999999999863
 20
67.49999999999886
 30
0.0
 11
-14.99999999999863
 21
82.49999999999886
 31
0.0
  0
ARC
  5
64
330
2
100
AcDbEntity
  8
ANCON-CHANNEL
100
AcDbCircle
 10
-23.99999999999863
 20
82.08578643762587
 30
0.0
 40
6.0
100
AcDbArc
 50
0.0
 51
45.0
  0
ARC
  5
65
330
2
100
AcDbEntity
  8
ANCON-CHANNEL
100
AcDbCircle
 10
-23.99999999999863
 20
82.08578643762587
 30
0.0
 40
1.0
100
AcDbArc
 50
24.46980052069426
 51
45.0
  0
LINE
  5
66
330
2
100
AcDbEntity
  8
ANCON-CHANNEL
100
AcDbLine
 10
-27.19510592370261
 20
81.19370470202397
 30
0.0
 11
-27.19510592370261
 21
81.34378945244952
 31
0.0
  0
LINE
  5
67
330
2
100
AcDbEntity
  8
ANCON-CHANNEL
100
AcDbLine
 10
-28.19510592370261
 20
81.00681879268881
 30
0.0
 11
-28.19510592370261
 21
81.34378945244952
 31
0.0
  0
LINE
  5
68
330
2
100
AcDbEntity
  8
ANCON-CHANNEL
100
AcDbLine
 10
-29.19510592370261
 20
77.46500900692933
 30
0.0
 11
-29.19510592370261
 21
81.00681879268881
 31
0.0
  0
LINE
  5
69
330
2
100
AcDbEntity
  8
ANCON-CHANNEL
100
AcDbLine
 10
-29.19510592370261
 20
81.84780607386006
 30
0.0
 11
-29.19510592370261
 21
81.34378945244952
 31
0.0
  0
ARC
  5
6A
330
2
100
AcDbEntity
  8
ANCON-CHANNEL
100
AcDbCircle
 10
-23.99999999999863
 20
67.91421356237231
 30
0.0
 40
1.0
100
AcDbArc
 50
315.0
 51
335.5301994792825
  0
LINE
  5
6B
330
2
100
AcDbEntity
  8
ANCON-CHANNEL
100
AcDbLine
 10
-27.19510592370261
 20
72.55925009648501
 30
0.0
 11
-27.19510592370261
 21
75.68959080075615
 31
0.0
  0
LINE
  5
6C
330
2
100
AcDbEntity
  8
ANCON-CHANNEL
100
AcDbLine
 10
-28.19510592370261
 20
71.85842621357029
 30
0.0
 11
-28.19510592370261
 21
75.68959080075615
 31
0.0
  0
LINE
  5
6D
330
2
100
AcDbEntity
  8
ANCON-CHANNEL
100
AcDbLine
 10
-29.19510592370261
 20
72.27892054331914
 30
0.0
 11
-29.19510592370261
 21
74.4748317009147
 31
0.0
  0
LINE
  5
6E
330
2
100
AcDbEntity
  8
ANCON-CHANNEL
100
AcDbLine
 10
-29.19510592370261
 20
68.40485893033473
 30
0.0
 11
-29.19510592370261
 21
68.20394650788592
 31
0.0
  0
LINE
  5
6F
330
2
100
AcDbEntity
  8
ANCON-CHANNEL
100
AcDbLine
 10
-27.19510592370261
 20
68.40485893033473
 30
0.0
 11
-27.19510592370261
 21
71.15760370898204
 31
0.0
  0
LINE
  5
70
330
2
100
AcDbEntity
  8
ANCON-CHANNEL
100
AcDbLine
 10
-28.19510592370261
 20
68.40485893033473
 30
0.0
 11
-28.19510592370261
 21
71.20432622006058
 31
0.0
  0
LINE
  5
71
330
2
100
AcDbEntity
  8
ANCON-CHANNEL
100
AcDbLine
 10
-17.99999999999863
 20
67.80219042590193
 30
0.0
 11
-17.99999999999863
 21
82.08578643762587
 31
0.0
  0
LINE
  5
72
330
2
100
AcDbEntity
  8
ANCON-CHANNEL
100
AcDbLine
 10
-27.19510592370261
 20
76.48385694917521
 30
0.0
 11
-27.19510592370261
 21
78.49288219743574
 31
0.0
  0
LINE
  5
73
330
2
100
AcDbEntity
  8
ANCON-CHANNEL
100
AcDbLine
 10
-28.19510592370261
 20
76.15680626325718
 30
0.0
 11
-28.19510592370261
 21
78.30599628810057
 31
0.0
  0
LINE
  5
74
330
2
100
AcDbEntity
  8
ANCON-CHANNEL
100
AcDbLine
 10
-29.19510592370261
 20
75.08221193999862
 30
0.0
 11
-29.19510592370261
 21
76.81090763509326
 31
0.0
  0
ARC
  5
75
330
2
100
AcDbEntity
  8
ANCON-CHANNEL
100
AcDbCircle
 10
-11.99999999999863
 20
61.99999999999886
 30
0.0
 40
3.0
100
AcDbArc
 50
180.0
 51
270.0
  0
ARC
  5
76
330
2
100
AcDbEntity
  8
ANCON-CHANNEL
100
AcDbCircle
 10
-26.99999999999863
 20
55.01471862576079
 30
0.0
 40
1.0
100
AcDbArc
 50
135.0
 51
180.0
  0
LINE
  5
77
330
2
100
AcDbEntity
  8
ANCON-CHANNEL
100
AcDbLine
 10
-19.75735931287954
 20
63.67157287525299
 30
0.0
 11
-27.7071067811853
 21
55.72182540694734
 31
0.0
  0
ARC
  5
78
330
2
100
AcDbEntity
  8
ANCON-CHANNEL
100
AcDbCircle
 10
-11.99999999999863
 20
61.99999999999886
 30
0.0
 40
6.0
100
AcDbArc
 50
180.0
 51
270.0
  0
LINE
  5
79
330
2
100
AcDbEntity
  8
ANCON-CHANNEL
100
AcDbLine
 10
-14.99999999999863
 20
61.99999999999886
 30
0.0
 11
-14.99999999999863
 21
87.99999999999887
 31
0.0
  0
LINE
  5
7A
330
2
100
AcDbEntity
  8
ANCON-CHANNEL
100
AcDbLine
 10
-17.99999999999863
 20
61.99999999999886
 30
0.0
 11
-17.99999999999863
 21
87.99999999999887
 31
0.0
  0
LINE
  5
7B
330
2
100
AcDbEntity
  8
ANCON-CHANNEL
100
AcDbLine
 10
-23.29289321881242
 20
67.20710678118564
 30
0.0
 11
-31.24264068711818
 21
59.25735931288
 31
0.0
  0
ARC
  5
7C
330
2
100
AcDbEntity
  8
ANCON-CHANNEL
100
AcDbCircle
 10
-23.99999999999863
 20
67.91421356237231
 30
0.0
 40
6.0
100
AcDbArc
 50
315.0
 51
0.0
  0
LINE
  5
7D
330
2
100
AcDbEntity
  8
ANCON-CHANNEL
100
AcDbLine
 10
-19.75735931287954
 20
86.32842712474518
 30
0.0
 11
-27.7071067811853
 21
94.27817459305083
 31
0.0
  0
LINE
  5
7E
330
2
100
AcDbEntity
  8
ANCON-CHANNEL
100
AcDbLine
 10
-23.29289321881242
 20
82.79289321881254
 30
0.0
 11
-31.24264068711818
 21
90.74264068711817
 31
0.0
  0
ARC
  5
7F
330
2
100
AcDbEntity
  8
ANCON-CHANNEL
100
AcDbCircle
 10
-11.99999999999863
 20
87.99999999999887
 30
0.0
 40
3.0
100
AcDbArc
 50
90.0
 51
180.0
  0
ARC
  5
80
330
2
100
AcDbEntity
  8
ANCON-CHANNEL
100
AcDbCircle
 10
-11.99999999999863
 20
87.99999999999887
 30
0.0
 40
6.0
100
AcDbArc
 50
90.0
 51
180.0
  0
LINE
  5
81
330
2
100
AcDbEntity
  8
ANCON-CHANNEL
100
AcDbLine
 10
-11.99999999999863
 20
88.99999999999886
 30
0.0
 11
-11.99999999999863
 21
60.99999999999886
 31
0.0
  0
LINE
  5
82
330
2
100
AcDbEntity
  8
ANCON-CHANNEL
100
AcDbLine
 10
-32.99999999999863
 20
94.98528137423738
 30
0.0
 11
-32.99999999999863
 21
107.2426406871177
 31
0.0
  0
LINE
  5
83
330
2
100
AcDbEntity
  8
ANCON-CHANNEL
100
AcDbLine
 10
-39.2404996871619
 20
77.46500900692933
 30
0.0
 11
-39.2404996871619
 21
81.00681879268881
 31
0.0
  0
LINE
  5
84
330
2
100
AcDbEntity
  8
ANCON-CHANNEL
100
AcDbLine
 10
-39.2404996871619
 20
81.84780607386006
 30
0.0
 11
-39.2404996871619
 21
81.34378945244952
 31
0.0
  0
LINE
  5
85
330
2
100
AcDbEntity
  8
ANCON-CHANNEL
100
AcDbLine
 10
-38.2404996871619
 20
81.00681879268881
 30
0.0
 11
-38.2404996871619
 21
81.34378945244952
 31
0.0
  0
LINE
  5
86
330
2
100
AcDbEntity
  8
ANCON-CHANNEL
100
AcDbLine
 10
-37.2404996871619
 20
81.19370470202397
 30
0.0
 11
-37.2404996871619
 21
81.34378945244952
 31
0.0
  0
LINE
  5
87
330
2
100
AcDbEntity
  8
ANCON-CHANNEL
100
AcDbLine
 10
-47.28589345062118
 20
81.19370470202397
 30
0.0
 11
-47.28589345062118
 21
81.34378945244952
 31
0.0
  0
LINE
  5
88
330
2
100
AcDbEntity
  8
ANCON-CHANNEL
100
AcDbLine
 10
-48.28589345062119
 20
81.00681879268881
 30
0.0
 11
-48.28589345062119
 21
81.34378945244952
 31
0.0
  0
LINE
  5
89
330
2
100
AcDbEntity
  8
ANCON-CHANNEL
100
AcDbLine
 10
-37.2404996871619
 20
72.55925009648501
 30
0.0
 11
-37.2404996871619
 21
75.68959080075615
 31
0.0
  0
LINE
  5
8A
330
2
100
AcDbEntity
  8
ANCON-CHANNEL
100
AcDbLine
 10
-39.2404996871619
 20
72.27892054331914
 30
0.0
 11
-39.2404996871619
 21
74.4748317009147
 31
0.0
  0
LINE
  5
8B
330
2
100
AcDbEntity
  8
ANCON-CHANNEL
100
AcDbLine
 10
-38.2404996871619
 20
71.85842621357029
 30
0.0
 11
-38.2404996871619
 21
75.68959080075615
 31
0.0
  0
LINE
  5
8C
330
2
100
AcDbEntity
  8
ANCON-CHANNEL
100
AcDbLine
 10
-39.2404996871619
 20
68.40485893033473
 30
0.0
 11
-39.2404996871619
 21
68.20394650788592
 31
0.0
  0
LINE
  5
8D
330
2
100
AcDbEntity
  8
ANCON-CHANNEL
100
AcDbLine
 10
-38.2404996871619
 20
68.40485893033473
 30
0.0
 11
-38.2404996871619
 21
71.20432622006058
 31
0.0
  0
LINE
  5
8E
330
2
100
AcDbEntity
  8
ANCON-CHANNEL
100
AcDbLine
 10
-37.2404996871619
 20
68.40485893033473
 30
0.0
 11
-37.2404996871619
 21
71.15760370898204
 31
0.0
  0
LINE
  5
8F
330
2
100
AcDbEntity
  8
ANCON-CHANNEL
100
AcDbLine
 10
-47.28589345062118
 20
72.55925009648501
 30
0.0
 11
-47.28589345062118
 21
75.68959080075615
 31
0.0
  0
LINE
  5
90
330
2
100
AcDbEntity
  8
ANCON-CHANNEL
100
AcDbLine
 10
-48.28589345062119
 20
71.85842621357029
 30
0.0
 11
-48.28589345062119
 21
75.68959080075615
 31
0.0
  0
LINE
  5
91
330
2
100
AcDbEntity
  8
ANCON-CHANNEL
100
AcDbLine
 10
-47.28589345062118
 20
68.40485893033473
 30
0.0
 11
-47.28589345062118
 21
71.15760370898204
 31
0.0
  0
LINE
  5
92
330
2
100
AcDbEntity
  8
ANCON-CHANNEL
100
AcDbLine
 10
-48.28589345062119
 20
68.40485893033473
 30
0.0
 11
-48.28589345062119
 21
71.20432622006058
 31
0.0
  0
LINE
  5
93
330
2
100
AcDbEntity
  8
ANCON-CHANNEL
100
AcDbLine
 10
-48.28589345062119
 20
76.15680626325718
 30
0.0
 11
-48.28589345062119
 21
78.30599628810057
 31
0.0
  0
LINE
  5
94
330
2
100
AcDbEntity
  8
ANCON-CHANNEL
100
AcDbLine
 10
-47.28589345062118
 20
76.48385694917521
 30
0.0
 11
-47.28589345062118
 21
78.49288219743574
 31
0.0
  0
LINE
  5
95
330
2
100
AcDbEntity
  8
ANCON-CHANNEL
100
AcDbLine
 10
-39.2404996871619
 20
75.08221193999862
 30
0.0
 11
-39.2404996871619
 21
76.81090763509326
 31
0.0
  0
LINE
  5
96
330
2
100
AcDbEntity
  8
ANCON-CHANNEL
100
AcDbLine
 10
-38.2404996871619
 20
76.15680626325718
 30
0.0
 11
-38.2404996871619
 21
78.30599628810057
 31
0.0
  0
LINE
  5
97
330
2
100
AcDbEntity
  8
ANCON-CHANNEL
100
AcDbLine
 10
-37.2404996871619
 20
76.48385694917521
 30
0.0
 11
-37.2404996871619
 21
78.49288219743574
 31
0.0
  0
LINE
  5
98
330
2
100
AcDbEntity
  8
ANCON-CHANNEL
100
AcDbLine
 10
-49.28589345062118
 20
77.46500900692933
 30
0.0
 11
-49.28589345062118
 21
81.00681879268881
 31
0.0
  0
LINE
  5
99
330
2
100
AcDbEntity
  8
ANCON-CHANNEL
100
AcDbLine
 10
-49.28589345062118
 20
81.84780607386006
 30
0.0
 11
-49.28589345062118
 21
81.34378945244952
 31
0.0
  0
LINE
  5
9A
330
2
100
AcDbEntity
  8
ANCON-CHANNEL
100
AcDbLine
 10
-59.33128721408047
 20
77.46500900692933
 30
0.0
 11
-59.33128721408047
 21
81.00681879268881
 31
0.0
  0
LINE
  5
9B
330
2
100
AcDbEntity
  8
ANCON-CHANNEL
100
AcDbLine
 10
-59.33128721408047
 20
81.84780607386006
 30
0.0
 11
-59.33128721408047
 21
81.34378945244952
 31
0.0
  0
LINE
  5
9C
330
2
100
AcDbEntity
  8
ANCON-CHANNEL
100
AcDbLine
 10
-58.33128721408048
 20
81.00681879268881
 30
0.0
 11
-58.33128721408048
 21
81.34378945244952
 31
0.0
  0
LINE
  5
9D
330
2
100
AcDbEntity
  8
ANCON-CHANNEL
100
AcDbLine
 10
-57.33128721408047
 20
81.19370470202397
 30
0.0
 11
-57.33128721408047
 21
81.34378945244952
 31
0.0
  0
LINE
  5
9E
330
2
100
AcDbEntity
  8
ANCON-CHANNEL
100
AcDbLine
 10
-49.28589345062118
 20
72.27892054331914
 30
0.0
 11
-49.28589345062118
 21
74.4748317009147
 31
0.0
  0
LINE
  5
9F
330
2
100
AcDbEntity
  8
ANCON-CHANNEL
100
AcDbLine
 10
-49.28589345062118
 20
68.40485893033473
 30
0.0
 11
-49.28589345062118
 21
68.20394650788592
 31
0.0
  0
LINE
  5
A0
330
2
100
AcDbEntity
  8
ANCON-CHANNEL
100
AcDbLine
 10
-57.33128721408047
 20
72.55925009648501
 30
0.0
 11
-57.33128721408047
 21
75.68959080075615
 31
0.0
  0
LINE
  5
A1
330
2
100
AcDbEntity
  8
ANCON-CHANNEL
100
AcDbLine
 10
-59.33128721408047
 20
72.27892054331914
 30
0.0
 11
-59.33128721408047
 21
74.4748317009147
 31
0.0
  0
LINE
  5
A2
330
2
100
AcDbEntity
  8
ANCON-CHANNEL
100
AcDbLine
 10
-58.33128721408048
 20
71.85842621357029
 30
0.0
 11
-58.33128721408048
 21
75.68959080075615
 31
0.0
  0
LINE
  5
A3
330
2
100
AcDbEntity
  8
ANCON-CHANNEL
100
AcDbLine
 10
-59.33128721408047
 20
68.40485893033473
 30
0.0
 11
-59.33128721408047
 21
68.20394650788592
 31
0.0
  0
LINE
  5
A4
330
2
100
AcDbEntity
  8
ANCON-CHANNEL
100
AcDbLine
 10
-58.33128721408048
 20
68.40485893033473
 30
0.0
 11
-58.33128721408048
 21
71.20432622006058
 31
0.0
  0
LINE
  5
A5
330
2
100
AcDbEntity
  8
ANCON-CHANNEL
100
AcDbLine
 10
-57.33128721408047
 20
68.40485893033473
 30
0.0
 11
-57.33128721408047
 21
71.15760370898204
 31
0.0
  0
LINE
  5
A6
330
2
100
AcDbEntity
  8
ANCON-CHANNEL
100
AcDbLine
 10
-59.33128721408047
 20
75.08221193999862
 30
0.0
 11
-59.33128721408047
 21
76.81090763509326
 31
0.0
  0
LINE
  5
A7
330
2
100
AcDbEntity
  8
ANCON-CHANNEL
100
AcDbLine
 10
-57.33128721408047
 20
76.48385694917521
 30
0.0
 11
-57.33128721408047
 21
78.49288219743574
 31
0.0
  0
LINE
  5
A8
330
2
100
AcDbEntity
  8
ANCON-CHANNEL
100
AcDbLine
 10
-58.33128721408048
 20
76.15680626325718
 30
0.0
 11
-58.33128721408048
 21
78.30599628810057
 31
0.0
  0
LINE
  5
A9
330
2
100
AcDbEntity
  8
ANCON-CHANNEL
100
AcDbLine
 10
-49.28589345062118
 20
75.08221193999862
 30
0.0
 11
-49.28589345062118
 21
76.81090763509326
 31
0.0
  0
LINE
  5
AA
330
2
100
AcDbEntity
  8
ANCON-CHANNEL
100
AcDbLine
 10
-39.99999999999863
 20
67.49999999999886
 30
0.0
 11
-39.99999999999863
 21
50.80591103417692
 31
0.0
  0
LINE
  5
AB
330
2
100
AcDbEntity
  8
ANCON-CHANNEL
100
AcDbLine
 10
-44.99999999999864
 20
67.49999999999886
 30
0.0
 11
-44.99999999999864
 21
50.80591103417692
 31
0.0
  0
LINE
  5
AC
330
2
100
AcDbEntity
  8
ANCON-CHANNEL
100
AcDbLine
 10
-69.37668097753976
 20
77.46500900692933
 30
0.0
 11
-69.37668097753976
 21
81.00681879268881
 31
0.0
  0
LINE
  5
AD
330
2
100
AcDbEntity
  8
ANCON-CHANNEL
100
AcDbLine
 10
-69.37668097753976
 20
81.84780607386006
 30
0.0
 11
-69.37668097753976
 21
81.34378945244952
 31
0.0
  0
LINE
  5
AE
330
2
100
AcDbEntity
  8
ANCON-CHANNEL
100
AcDbLine
 10
-68.37668097753976
 20
81.00681879268881
 30
0.0
 11
-68.37668097753976
 21
81.34378945244952
 31
0.0
  0
LINE
  5
AF
330
2
100
AcDbEntity
  8
ANCON-CHANNEL
100
AcDbLine
 10
-67.37668097753976
 20
81.19370470202397
 30
0.0
 11
-67.37668097753976
 21
81.34378945244952
 31
0.0
  0
LINE
  5
B0
330
2
100
AcDbEntity
  8
ANCON-CHANNEL
100
AcDbLine
 10
-69.37668097753976
 20
72.27892054331914
 30
0.0
 11
-69.37668097753976
 21
74.4748317009147
 31
0.0
  0
LINE
  5
B1
330
2
100
AcDbEntity
  8
ANCON-CHANNEL
100
AcDbLine
 10
-68.37668097753976
 20
71.85842621357029
 30
0.0
 11
-68.37668097753976
 21
75.68959080075615
 31
0.0
  0
LINE
  5
B2
330
2
100
AcDbEntity
  8
ANCON-CHANNEL
100
AcDbLine
 10
-67.37668097753976
 20
72.55925009648501
 30
0.0
 11
-67.37668097753976
 21
75.68959080075615
 31
0.0
  0
LINE
  5
B3
330
2
100
AcDbEntity
  8
ANCON-CHANNEL
100
AcDbLine
 10
-69.37668097753976
 20
68.40485893033473
 30
0.0
 11
-69.37668097753976
 21
68.20394650788592
 31
0.0
  0
LINE
  5
B4
330
2
100
AcDbEntity
  8
ANCON-CHANNEL
100
AcDbLine
 10
-68.37668097753976
 20
68.40485893033473
 30
0.0
 11
-68.37668097753976
 21
71.20432622006058
 31
0.0
  0
LINE
  5
B5
330
2
100
AcDbEntity
  8
ANCON-CHANNEL
100
AcDbLine
 10
-67.37668097753976
 20
68.40485893033473
 30
0.0
 11
-67.37668097753976
 21
71.15760370898204
 31
0.0
  0
LINE
  5
B6
330
2
100
AcDbEntity
  8
ANCON-CHANNEL
100
AcDbLine
 10
-69.37668097753976
 20
75.08221193999862
 30
0.0
 11
-69.37668097753976
 21
76.81090763509326
 31
0.0
  0
LINE
  5
B7
330
2
100
AcDbEntity
  8
ANCON-CHANNEL
100
AcDbLine
 10
-68.37668097753976
 20
76.15680626325718
 30
0.0
 11
-68.37668097753976
 21
78.30599628810057
 31
0.0
  0
LINE
  5
B8
330
2
100
AcDbEntity
  8
ANCON-CHANNEL
100
AcDbLine
 10
-67.37668097753976
 20
76.48385694917521
 30
0.0
 11
-67.37668097753976
 21
78.49288219743574
 31
0.0
  0
LINE
  5
B9
330
2
100
AcDbEntity
  8
ANCON-CHANNEL
100
AcDbLine
 10
-81.99999999999864
 20
67.49999999999886
 30
0.0
 11
-81.99999999999864
 21
82.49999999999886
 31
0.0
  0
ARC
  5
BA
330
2
100
AcDbEntity
  8
ANCON-CHANNEL
100
AcDbCircle
 10
-65.6826433885285
 20
74.99999999999886
 30
0.0
 40
25.68264338852964
100
AcDbArc
 50
16.97928957719187
 51
90.0
  0
ARC
  5
BB
330
2
100
AcDbEntity
  8
ANCON-CHANNEL
100
AcDbCircle
 10
-65.6826433885285
 20
74.99999999999886
 30
0.0
 40
20.68264338852964
100
AcDbArc
 50
21.26136455836988
 51
90.0
  0
CIRCLE
  5
BC
330
2
100
AcDbEntity
  8
ANCON-CHANNEL
100
AcDbCircle
 10
-64.09691752113713
 20
91.72879463478398
 30
0.0
 40
4.0
  0
LINE
  5
BD
330
2
100
AcDbEntity
  8
ANCON-CHANNEL
100
AcDbLine
 10
-81.99999999999864
 20
82.49999999999886
 30
0.0
 11
-17.99999999999863
 21
82.49999999999886
 31
0.0
  0
LINE
  5
BE
330
2
100
AcDbEntity
  8
ANCON-CHANNEL
100
AcDbLine
 10
-81.99999999999864
 20
67.49999999999886
 30
0.0
 11
-17.99999999999863
 21
67.49999999999886
 31
0.0
  0
ARC
  5
BF
330
2
100
AcDbEntity
  8
ANCON-CHANNEL
100
AcDbCircle
 10
-26.99999999999863
 20
55.01471862576079
 30
0.0
 40
6.0
100
AcDbArc
 50
135.0
 51
180.0
  0
ARC
  5
C0
330
2
100
AcDbEntity
  8
ANCON-CHANNEL
100
AcDbCircle
 10
-26.99999999999863
 20
94.98528137423738
 30
0.0
 40
6.0
100
AcDbArc
 50
180.0
 51
225.0
  0
CIRCLE
  5
C1
330
2
100
AcDbEntity
  8
ANCON-CHANNEL
100
AcDbCircle
 10
-171.3505920517459
 20
91.72879463478398
 30
0.0
 40
4.0
  0
LINE
  5
C2
330
2
100
AcDbEntity
  8
ANCON-CHANNEL
100
AcDbLine
 10
-273.8567674791557
 20
95.72879463478409
 30
0.0
 11
-65.6826433885285
 21
95.72879463478399
 31
0.0
  0
LINE
  5
C3
330
2
100
AcDbEntity
  8
ANCON-CHANNEL
100
AcDbLine
 10
-273.8567674791557
 20
100.7287946347843
 30
0.0
 11
-65.6826433885285
 21
100.7287946347843
 31
0.0
  0
TEXT
  5
C4
330
2
100
AcDbEntity
  8
DIMENSIONS
100
AcDbText
 10
7286.181081807619
 20
985.7728829390108
 30
0.0
 40
5.0
  1

100
AcDbText
  0
TEXT
  5
C6
330
2
100
AcDbEntity
  8
DIMENSIONS
100
AcDbText
 10
5454.724784795117
 20
-855.740337601372
 30
0.0
 40
5.0
  1

100
AcDbText
  0
TEXT
  5
C7
330
2
100
AcDbEntity
  8
DIMENSIONS
100
AcDbText
 10
5454.724784795117
 20
-855.740337601372
 30
0.0
 40
5.0
  1

100
AcDbText
  0
TEXT
  5
C8
330
2
100
AcDbEntity
  8
DIMENSIONS
100
AcDbText
 10
3524.018748154102
 20
-1370.856168970822
 30
0.0
 40
5.0
  1

100
AcDbText
  0
TEXT
  5
C9
330
2
100
AcDbEntity
  8
GENTEXT
100
AcDbText
 10
1274.160143267985
 20
1577.17751110097
 30
0.0
 40
9.0
  1

  7
ROMANS
100
AcDbText
  0
TEXT
  5
CB
330
2
100
AcDbEntity
  8
GENTEXT
100
AcDbText
 10
1215.270526120654
 20
860.3310974110726
 30
0.0
 40
9.0
  1

  7
ROMANS
100
AcDbText
  0
TEXT
  5
CC
330
2
100
AcDbEntity
  8
ANCON-TEXT
100
AcDbText
 10
1139.013865968711
 20
581.455778913442
 30
0.0
 40
9.0
  1

  7
ROMANS
100
AcDbText
  0
TEXT
  5
CE
330
2
100
AcDbEntity
  8
ANCON-TEXT
100
AcDbText
 10
1139.013865968711
 20
522.6415847145334
 30
0.0
 40
9.0
  1

  7
ROMANS
100
AcDbText
  0
TEXT
  5
CF
330
2
100
AcDbEntity
  8
ANCON-TEXT
100
AcDbText
 10
979.6782298113058
 20
747.8021049479975
 30
0.0
 40
9.0
  1

  7
ROMANS
100
AcDbText
  0
TEXT
  5
D0
330
2
100
AcDbEntity
  8
ANCON-TEXT
100
AcDbText
 10
979.6782298113058
 20
762.1592083182851
 30
0.0
 40
9.0
  1

  7
ROMANS
100
AcDbText
  0
TEXT
  5
D1
330
2
100
AcDbEntity
  8
GENTEXT
100
AcDbText
 10
1621.097193164459
 20
1164.736064533943
 30
0.0
 40
9.0
  1

  7
ROMANS
100
AcDbText
  0
TEXT
  5
D2
330
2
100
AcDbEntity
  8
ANCON-TEXT
100
AcDbText
 10
444.8758524929253
 20
856.6528305679927
 30
0.0
 40
9.0
  1

  7
ROMANS
100
AcDbText
  0
TEXT
  5
D3
330
2
100
AcDbEntity
  8
ANCON-TEXT
100
AcDbText
 10
444.8758524929253
 20
871.0099339382802
 30
0.0
 40
9.0
  1

  7
ROMANS
100
AcDbText
  0
LINE
  5
D4
330
2
100
AcDbEntity
  8
ANCON-TIE
100
AcDbLine
 10
137.5000000000018
 20
276.2499999999988
 30
0.0
 11
137.5000000000018
 21
273.7499999999988
 31
0.0
  0
LINE
  5
D6
330
2
100
AcDbEntity
  8
ANCON-MASONRY
100
AcDbLine
 10
75.00000000000159
 20
269.9999999999989
 30
0.0
 11
177.0000000000016
 21
269.9999999999988
 31
0.0
  0
LINE
  5
D8
330
2
100
AcDbEntity
  8
ANCON-MASONRY
100
AcDbLine
 10
75.00000000000113
 20
279.9999999999988
 30
0.0
 11
177.0000000000013
 21
279.9999999999988
 31
0.0
  0
LINE
  5
D9
330
2
100
AcDbEntity
  8
ANCON-MASONRY
100
AcDbLine
 10
177.0000000000013
 20
129.9999999999987
 30
0.0
 11
177.0000000000016
 21
194.9999999999988
 31
0.0
  0
LINE
  5
DA
330
2
100
AcDbEntity
  8
ANCON-MASONRY
100
AcDbLine
 10
75.00000000000113
 20
129.9999999999988
 30
0.0
 11
75.00000000000159
 21
194.9999999999988
 31
0.0
  0
LINE
  5
DB
330
2
100
AcDbEntity
  8
ANCON-MASONRY
100
AcDbLine
 10
75.00000000000159
 20
119.9999999999988
 30
0.0
 11
177.0000000000016
 21
119.9999999999988
 31
0.0
  0
LINE
  5
DC
330
2
100
AcDbEntity
  8
ANCON-MASONRY
100
AcDbLine
 10
75.00000000000113
 20
129.9999999999988
 30
0.0
 11
177.0000000000013
 21
129.9999999999987
 31
0.0
  0
LINE
  5
DD
330
2
100
AcDbEntity
  8
ANCON-MASONRY
100
AcDbLine
 10
75.00000000000159
 20
194.9999999999988
 30
0.0
 11
177.0000000000016
 21
194.9999999999988
 31
0.0
  0
LINE
  5
DE
330
2
100
AcDbEntity
  8
ANCON-MASONRY
100
AcDbLine
 10
75.00000000000113
 20
204.9999999999988
 30
0.0
 11
177.0000000000013
 21
204.9999999999987
 31
0.0
  0
LINE
  5
DF
330
2
100
AcDbEntity
  8
ANCON-MASONRY
100
AcDbLine
 10
177.0000000000013
 20
204.9999999999987
 30
0.0
 11
177.0000000000016
 21
269.9999999999988
 31
0.0
  0
LINE
  5
E0
330
2
100
AcDbEntity
  8
ANCON-MASONRY
100
AcDbLine
 10
75.00000000000113
 20
204.9999999999988
 30
0.0
 11
75.00000000000159
 21
269.9999999999989
 31
0.0
  0
LINE
  5
E1
330
2
100
AcDbEntity
  8
ANCON-TIE
100
AcDbLine
 10
51.00000000000114
 20
269.7499999999986
 30
0.0
 11
65.00000000000113
 21
273.7499999999986
 31
0.0
  0
LINE
  5
E2
330
2
100
AcDbEntity
  8
ANCON-TIE
100
AcDbLine
 10
51.00000000000114
 20
272.2499999999988
 30
0.0
 11
65.00000000000113
 21
276.2499999999988
 31
0.0
  0
LINE
  5
E3
330
2
100
AcDbEntity
  8
ANCON-TIE
100
AcDbLine
 10
35.00000000000113
 20
273.7499999999986
 30
0.0
 11
51.00000000000114
 21
269.7499999999986
 31
0.0
  0
LINE
  5
E4
330
2
100
AcDbEntity
  8
ANCON-TIE
100
AcDbLine
 10
35.00000000000113
 20
276.2499999999988
 30
0.0
 11
51.00000000000114
 21
272.2499999999988
 31
0.0
  0
LINE
  5
E5
330
2
100
AcDbEntity
  8
ANCON-TIE
100
AcDbLine
 10
-62.49999999999818
 20
276.2499999999988
 30
0.0
 11
-62.49999999999818
 21
273.7499999999988
 31
0.0
  0
LINE
  5
E6
330
2
100
AcDbEntity
  8
ANCON-TIE
100
AcDbLine
 10
-62.49999999999818
 20
273.7499999999988
 30
0.0
 11
35.00000000000091
 21
273.7499999999988
 31
0.0
  0
LINE
  5
E7
330
2
100
AcDbEntity
  8
ANCON-TIE
100
AcDbLine
 10
-62.49999999999818
 20
276.2499999999988
 30
0.0
 11
35.00000000000091
 21
276.2499999999988
 31
0.0
  0
LINE
  5
E8
330
2
100
AcDbEntity
  8
ANCON-SUPPORT
100
AcDbLine
 10
20.44017033873887
 20
111.9999999999989
 30
0.0
 11
0.0
 21
111.9999999999988
 31
0.0
  0
LINE
  5
E9
330
2
100
AcDbEntity
  8
ANCON-MASONRY
100
AcDbLine
 10
0.0000000000011369
 20
139.9999999999988
 30
0.0
 11
0.0000000000021925
 21
269.9999999999988
 31
0.0
  0
LINE
  5
EA
330
2
100
AcDbEntity
  8
ANCON-TIE
100
AcDbLine
 10
65.00000000000136
 20
273.7499999999988
 30
0.0
 11
137.5000000000018
 21
273.7499999999988
 31
0.0
  0
LINE
  5
EB
330
2
100
AcDbEntity
  8
ANCON-TIE
100
AcDbLine
 10
65.00000000000113
 20
276.2499999999988
 30
0.0
 11
137.5000000000018
 21
276.2499999999988
 31
0.0
  0
LINE
  5
EC
330
2
100
AcDbEntity
  8
ANCON-MASONRY
100
AcDbLine
 10
177.0000000000013
 20
279.9999999999988
 30
0.0
 11
177.0000000000016
 21
344.9999999999988
 31
0.0
  0
LINE
  5
ED
330
2
100
AcDbEntity
  8
ANCON-MASONRY
100
AcDbLine
 10
75.00000000000113
 20
279.9999999999988
 30
0.0
 11
75.00000000000159
 21
344.9999999999988
 31
0.0
  0
LINE
  5
EE
330
2
100
AcDbEntity
  8
ANCON-MASONRY
100
AcDbLine
 10
0.0000000000022737
 20
279.9999999999988
 30
0.0
 11
0.0000000000022737
 21
344.9999999999988
 31
0.0
  0
LINE
  5
EF
330
2
100
AcDbEntity
  8
ANCON-MASONRY
100
AcDbLine
 10
-139.9999999999988
 20
139.9999999999988
 30
0.0
 11
-139.999999999998
 21
269.9999999999987
 31
0.0
  0
LINE
  5
F0
330
2
100
AcDbEntity
  8
ANCON-MASONRY
100
AcDbLine
 10
-139.9999999999979
 20
344.9999999999988
 30
0.0
 11
-139.9999999999979
 21
279.9999999999988
 31
0.0
  0
LINE
  5
F1
330
2
100
AcDbEntity
  8
ANCON-STRUC
100
AcDbLine
 10
-3.999999999998635
 20
129.9999999999988
 30
0.0
 11
-273.8567674791557
 21
129.9999999999988
 31
0.0
  0
LINE
  5
F3
330
2
100
AcDbEntity
  8
ANCON-MASONRY
100
AcDbLine
 10
0.0000000000011369
 20
139.9999999999988
 30
0.0
 11
-139.9999999999988
 21
139.9999999999988
 31
0.0
  0
LINE
  5
F4
330
2
100
AcDbEntity
  8
ANCON-MASONRY
100
AcDbLine
 10
0.0000000000022737
 20
279.9999999999988
 30
0.0
 11
-139.9999999999979
 21
279.9999999999988
 31
0.0
  0
LINE
  5
F5
330
2
100
AcDbEntity
  8
ANCON-MASONRY
100
AcDbLine
 10
0.0000000000021925
 20
269.9999999999988
 30
0.0
 11
-139.999999999998
 21
269.9999999999987
 31
0.0
  0
LINE
  5
F6
330
2
100
AcDbEntity
  8
ANCON-MASONRY
100
AcDbLine
 10
75.00000000000136
 20
-5.000000000001207
 30
0.0
 11
75.00000000000159
 21
44.99999999999881
 31
0.0
  0
LINE
  5
F7
330
2
100
AcDbEntity
  8
ANCON-MASONRY
100
AcDbLine
 10
75.00000000000113
 20
-5.000000000001207
 30
0.0
 11
152.5000000000013
 21
-5.000000000001207
 31
0.0
  0
LINE
  5
F8
330
2
100
AcDbEntity
  8
ANCON-MASONRY
100
AcDbLine
 10
75.00000000000113
 20
54.99999999999879
 30
0.0
 11
177.0000000000013
 21
54.99999999999879
 31
0.0
  0
LINE
  5
F9
330
2
100
AcDbEntity
  8
ANCON-MASONRY
100
AcDbLine
 10
75.00000000000159
 20
44.99999999999881
 30
0.0
 11
177.0000000000016
 21
44.99999999999879
 31
0.0
  0
LINE
  5
FA
330
2
100
AcDbEntity
  8
ANCON-MASONRY
100
AcDbLine
 10
177.0000000000013
 20
-95.0000000000012
 30
0.0
 11
177.0000000000016
 21
-30.0000000000012
 31
0.0
  0
LINE
  5
FB
330
2
100
AcDbEntity
  8
ANCON-SUPPORT
100
AcDbLine
 10
144.9743726001806
 20
-16.00000000000122
 30
0.0
 11
144.9743726001806
 21
-20.00000000000122
 31
0.0
  0
LINE
  5
FC
330
2
100
AcDbEntity
  8
ANCON-MASONRY
100
AcDbLine
 10
75.00000000000113
 20
-95.0000000000012
 30
0.0
 11
75.00000000000159
 21
-30.0000000000012
 31
0.0
  0
LINE
  5
FD
330
2
100
AcDbEntity
  8
ANCON-MASONRY
100
AcDbLine
 10
75.00000000000113
 20
-95.0000000000012
 30
0.0
 11
177.0000000000013
 21
-95.0000000000012
 31
0.0
  0
LINE
  5
FE
330
2
100
AcDbEntity
  8
ANCON-MASONRY
100
AcDbLine
 10
75.00000000000159
 20
-30.0000000000012
 30
0.0
 11
177.0000000000016
 21
-30.0000000000012
 31
0.0
  0
LINE
  5
FF
330
2
100
AcDbEntity
  8
ANCON-MASONRY
100
AcDbLine
 10
75.00000000000159
 20
-105.0000000000012
 30
0.0
 11
177.0000000000016
 21
-105.0000000000012
 31
0.0
  0
LINE
  5
100
330
2
100
AcDbEntity
  8
ANCON-MASONRY
100
AcDbLine
 10
152.5000000000013
 20
-20.0000000000012
 30
0.0
 11
177.0000000000013
 21
-20.0000000000012
 31
0.0
  0
LINE
  5
101
330
2
100
AcDbEntity
  8
ANCON-MASONRY
100
AcDbLine
 10
152.5000000000013
 20
-20.00000000000112
 30
0.0
 11
152.5000000000013
 21
-5.000000000001207
 31
0.0
  0
LINE
  5
102
330
2
100
AcDbEntity
  8
ANCON-MASONRY
100
AcDbLine
 10
177.0000000000013
 20
-20.0000000000012
 30
0.0
 11
177.0000000000016
 21
44.99999999999879
 31
0.0
  0
LINE
  5
103
330
2
100
AcDbEntity
  8
ANCON-SUPPORT
100
AcDbLine
 10
30.44017033873888
 20
61.99999999999889
 30
0.0
 11
30.44017033873888
 21
101.9999999999989
 31
0.0
  0
LINE
  5
104
330
2
100
AcDbEntity
  8
ANCON-SUPPORT
100
AcDbLine
 10
54.9743726001808
 20
29.99999999999877
 30
0.0
 11
58.97437260018079
 21
29.99999999999877
 31
0.0
  0
LINE
  5
105
330
2
100
AcDbEntity
  8
ANCON-SUPPORT
100
AcDbLine
 10
54.97437260018045
 20
40.0
 30
0.0
 11
54.97437260017977
 21
-9.437364502543147
 31
0.0
  0
LINE
  5
106
330
2
100
AcDbEntity
  8
ANCON-SUPPORT
100
AcDbLine
 10
58.97437260018079
 20
29.99999999999877
 30
0.0
 11
58.97437260018079
 21
-12.00000000000122
 31
0.0
  0
LINE
  5
107
330
2
100
AcDbEntity
  8
ANCON-SUPPORT
100
AcDbLine
 10
54.9743726001808
 20
29.99999999999877
 30
0.0
 11
54.9743726001808
 21
-12.00000000000122
 31
0.0
  0
LINE
  5
108
330
2
100
AcDbEntity
  8
ANCON-SUPPORT
100
AcDbLine
 10
55.0
 20
-10.00000000000122
 30
0.0
 11
-0.0000000000000071
 21
-10.00000000000122
 31
0.0
  0
LINE
  5
109
330
2
100
AcDbEntity
  8
ANCON-SUPPORT
100
AcDbLine
 10
30.44017033873888
 20
61.99999999999889
 30
0.0
 11
54.97437260018045
 21
40.0
 31
0.0
  0
TEXT
  5
10A
330
2
100
AcDbEntity
  8
ANCON-DIM
100
AcDbText
 10
-99.4999999999986
 20
-114.5532331861202
 30
0.0
 40
9.0
  1
Without Props.
  7
ROMANS
 72
     4
 11
-49.99999999999864
 21
-111.5532331861202
 31
0.0
100
AcDbText
  0
LINE
  5
10C
330
2
100
AcDbEntity
  8
ANCON-STRUC
100
AcDbLine
 10
-99.99999999999864
 20
-0.0000000000012079
 30
0.0
 11
-99.99999999999864
 21
-12.70000000000119
 31
0.0
  0
DIMENSION
  5
10D
330
2
100
AcDbEntity
  8
ANCON-DIM
100
AcDbDimension
  2
*D1
 10
-99.99999999999864
 20
-96.07575010719449
 30
0.0
 11
-49.99999999999864
 21
-87.07575010719448
 31
0.0
 12
-1281.831625085779
 22
16.40712217622286
 32
0.0
  1
100 Max.
 71
     5
 42
-1.0
  3
1-5
100
AcDbAlignedDimension
 13
0.0000000000013642
 23
4.999999999998905
 33
0.0
 14
-99.99999999999864
 24
-12.70000000000119
 34
0.0
100
AcDbRotatedDimension
  0
ARC
  5
11B
330
2
100
AcDbEntity
  8
ANCON-SUPPORT
100
AcDbCircle
 10
62.9743726001808
 20
-12.00000000000122
 30
0.0
 40
4.0
100
AcDbArc
 50
180.0
 51
270.0
  0
ARC
  5
11C
330
2
100
AcDbEntity
  8
ANCON-SUPPORT
100
AcDbCircle
 10
62.9743726001808
 20
-12.00000000000122
 30
0.0
 40
8.0
100
AcDbArc
 50
180.0
 51
270.0
  0
LINE
  5
11D
330
2
100
AcDbEntity
  8
ANCON-SUPPORT
100
AcDbLine
 10
62.9743726001808
 20
-20.00000000000122
 30
0.0
 11
144.9743726001806
 21
-20.00000000000122
 31
0.0
  0
LINE
  5
11E
330
2
100
AcDbEntity
  8
ANCON-SUPPORT
100
AcDbLine
 10
62.9743726001808
 20
-16.00000000000122
 30
0.0
 11
144.9743726001806
 21
-16.00000000000122
 31
0.0
  0
LINE
  5
11F
330
2
100
AcDbEntity
  8
ANCON-MASONRY
100
AcDbLine
 10
177.0000000000013
 20
-170.0000000000011
 30
0.0
 11
177.0000000000016
 21
-105.0000000000012
 31
0.0
  0
LINE
  5
120
330
2
100
AcDbEntity
  8
ANCON-MASONRY
100
AcDbLine
 10
75.00000000000113
 20
-170.0000000000011
 30
0.0
 11
75.00000000000159
 21
-105.0000000000012
 31
0.0
  0
LINE
  5
121
330
2
100
AcDbEntity
  8
ANCON-STRUC
100
AcDbLine
 10
-199.9999999999986
 20
34.99999999999879
 30
0.0
 11
-199.9999999999986
 21
-0.0000000000012079
 31
0.0
  0
LINE
  5
122
330
2
100
AcDbEntity
  8
ANCON-STRUC
100
AcDbLine
 10
-199.9999999999986
 20
-0.0000000000012079
 30
0.0
 11
-273.8567674791557
 21
-0.0000000000012079
 31
0.0
  0
LINE
  5
123
330
2
100
AcDbEntity
  8
ANCON-STRUC
100
AcDbLine
 10
-199.9999999999986
 20
34.99999999999879
 30
0.0
 11
-273.8567674791557
 21
34.99999999999879
 31
0.0
  0
LINE
  5
124
330
2
100
AcDbEntity
  8
ANCON-STRUC
100
AcDbLine
 10
-247.2999999999986
 20
-12.70000000000119
 30
0.0
 11
-184.8999999999985
 21
-12.70000000000116
 31
0.0
  0
LINE
  5
125
330
2
100
AcDbEntity
  8
ANCON-STRUC
100
AcDbLine
 10
-247.2999999999986
 20
-12.70000000000119
 30
0.0
 11
-247.2999999999986
 21
-0.0000000000012079
 31
0.0
  0
ARC
  5
126
330
2
100
AcDbEntity
  8
ANCON-STRUC
100
AcDbCircle
 10
-162.3999999999985
 20
-20.30000000000119
 30
0.0
 40
7.599999999999999
100
AcDbArc
 50
90.0
 51
180.0000000000001
  0
ARC
  5
127
330
2
100
AcDbEntity
  8
ANCON-STRUC
100
AcDbCircle
 10
-184.8999999999985
 20
-20.30000000000116
 30
0.0
 40
7.599999999999999
100
AcDbArc
 50
0.0000000000000509
 51
90.0
  0
LINE
  5
128
330
2
100
AcDbEntity
  8
ANCON-STRUC
100
AcDbLine
 10
-177.2999999999985
 20
-20.30000000000116
 30
0.0
 11
-177.2999999999983
 21
-160.0000000000012
 31
0.0
  0
LINE
  5
129
330
2
100
AcDbEntity
  8
ANCON-STRUC
100
AcDbLine
 10
-169.9999999999984
 20
-20.30000000000121
 30
0.0
 11
-169.9999999999981
 21
-160.0000000000012
 31
0.0
  0
LINE
  5
12A
330
2
100
AcDbEntity
  8
ANCON-STRUC
100
AcDbLine
 10
-247.2999999999986
 20
-0.0000000000012079
 30
0.0
 11
-99.99999999999864
 21
-0.0000000000012079
 31
0.0
  0
LINE
  5
12B
330
2
100
AcDbEntity
  8
ANCON-STRUC
100
AcDbLine
 10
-162.3999999999985
 20
-12.70000000000119
 30
0.0
 11
-99.99999999999864
 21
-12.70000000000119
 31
0.0
  0
DIMENSION
  5
12C
330
2
100
AcDbEntity
  8
ANCON-DIM
100
AcDbDimension
  2
*D0
 10
-308.2658893616281
 20
-0.0000000000012079
 30
0.0
 11
-317.2658893616282
 21
64.99999999999882
 31
0.0
 12
-1281.831625085779
 22
16.40712217622286
 32
0.0
  1
130 Min.
 71
     5
 42
-1.0
  3
1-5
100
AcDbAlignedDimension
 13
-273.8567674791557
 23
129.9999999999988
 33
0.0
 14
-273.8567674791557
 24
-0.0000000000012079
 34
0.0
 50
90.0
100
AcDbRotatedDimension
  0
ARC
  5
139
330
2
100
AcDbEntity
  8
ANCON-SUPPORT
100
AcDbCircle
 10
20.44017033873888
 20
101.9999999999989
 30
0.0
 40
10.0
100
AcDbArc
 50
0.0
 51
90.0000000000001
  0
LINE
  5
13A
330
2
100
AcDbEntity
  8
ANCON-SUPPORT
100
AcDbLine
 10
0.0
 20
111.9999999999978
 30
0.0
 11
-0.0000000000000071
 21
-10.00000000000122
 31
0.0
  0
LINE
  5
13B
330
2
100
AcDbEntity
  8
ANCON-SUPPORT
100
AcDbLine
 10
4.0
 20
111.9999999999978
 30
0.0
 11
3.999999999999992
 21
-10.00000000000122
 31
0.0
  0
LINE
  5
13C
330
2
100
AcDbEntity
  8
ANCON-MASONRY
100
AcDbLine
 10
177.0000000000013
 20
54.99999999999879
 30
0.0
 11
177.0000000000016
 21
119.9999999999988
 31
0.0
  0
LINE
  5
13D
330
2
100
AcDbEntity
  8
ANCON-MASONRY
100
AcDbLine
 10
75.00000000000113
 20
54.99999999999879
 30
0.0
 11
75.00000000000159
 21
119.9999999999988
 31
0.0
  0
TEXT
  5
13E
330
2
100
AcDbEntity
  8
ANCON-TEXT
100
AcDbText
 10
214.7373669933542
 20
237.1037569866016
 30
0.0
 40
9.0
  1
Ancon MDC/CD Systems can be specified by the
  7
ROMANS
100
AcDbText
  0
TEXT
  5
13F
330
2
100
AcDbEntity
  8
ANCON-TEXT
100
AcDbText
 10
214.7373669933542
 20
222.532328415173
 30
0.0
 40
9.0
  1
cavity width/load from masonry ie. MDC/CD/75/5.6
  7
ROMANS
100
AcDbText
  0
TEXT
  5
140
330
2
100
AcDbEntity
  8
ANCON-TEXT
100
AcDbText
 10
214.7373669933542
 20
207.9608998437444
 30
0.0
 40
9.0
  1
Ancon Building Products will design a system to suit a 75mm cavity
  7
ROMANS
100
AcDbText
  0
TEXT
  5
141
330
2
100
AcDbEntity
  8
ANCON-TEXT
100
AcDbText
 10
214.7373669933542
 20
193.3894712723158
 30
0.0
 40
9.0
  1
and carry 5.6 kilonewtons load per metre run.
  7
ROMANS
100
AcDbText
  0
MTEXT
  5
142
330
2
100
AcDbEntity
  8
ANCON-TEXT
100
AcDbMText
 10
212.5353633929312
 20
155.6453824581485
 30
0.0
 40
9.0
 41
506.22
 71
     1
 72
     5
  1
This system is suitable for cavity sizes in the 50mm -125mm range
  7
ROMANS
 73
     1
 44
1.0
  0
ENDSEC
  0
SECTION
  2
OBJECTS
  0
DICTIONARY
  5
7
330
0
100
AcDbDictionary
281
     1
  3
ACAD_GROUP
350
21
  3
ACAD_LAYOUT
350
B
  3
ACAD_MLINESTYLE
350
22
  3
ACAD_PLOTSETTINGS
350
23
  3
ACAD_PLOTSTYLENAME
350
6
  0
DICTIONARY
  5
21
102
{ACAD_REACTORS
330
7
102
}
330
7
100
AcDbDictionary
281
     1
  0
DICTIONARY
  5
B
102
{ACAD_REACTORS
330
7
102
}
330
7
100
AcDbDictionary
281
     1
  3
Layout1
350
F
  3
Model
350
A
  0
DICTIONARY
  5
22
102
{ACAD_REACTORS
330
7
102
}
330
7
100
AcDbDictionary
281
     1
  3
STANDARD
350
25
  0
DICTIONARY
  5
23
102
{ACAD_REACTORS
330
7
102
}
330
7
100
AcDbDictionary
281
     1
  0
ACDBDICTIONARYWDFLT
  5
6
102
{ACAD_REACTORS
330
7
102
}
330
7
100
AcDbDictionary
281
     1
  3
Normal
350
5
100
AcDbDictionaryWithDefault
340
5
  0
LAYOUT
  5
F
102
{ACAD_REACTORS
330
B
102
}
330
B
100
AcDbPlotSettings
  1

  2
Ancon 2
  4

  6

 40
0.0
 41
0.0
 42
0.0
 43
0.0
 44
0.0
 45
0.0
 46
0.0
 47
0.0
 48
0.0
 49
0.0
140
0.0
141
0.0
142
1.0
143
1.0
 70
   688
 72
     0
 73
     0
 74
     5
  7

 75
    16
147
1.0
148
0.0
149
0.0
100
AcDbLayout
  1
Layout1
 70
     1
 71
     1
 10
0.0
 20
0.0
 11
420.0
 21
297.0
 12
0.0
 22
0.0
 32
0.0
 14
1.000000000000000E+20
 24
1.000000000000000E+20
 34
1.000000000000000E+20
 15
-1.000000000000000E+20
 25
-1.000000000000000E+20
 35
-1.000000000000000E+20
146
0.0
 13
0.0
 23
0.0
 33
0.0
 16
1.0
 26
0.0
 36
0.0
 17
0.0
 27
1.0
 37
0.0
 76
     0
330
C
  0
LAYOUT
  5
A
102
{ACAD_REACTORS
330
B
102
}
330
B
100
AcDbPlotSettings
  1

  2
Ancon 2
  4

  6

 40
0.0
 41
0.0
 42
0.0
 43
0.0
 44
0.0
 45
0.0
 46
0.0
 47
0.0
 48
0.0
 49
0.0
140
0.0
141
0.0
142
1.0
143
1.0
 70
  1712
 72
     0
 73
     0
 74
     0
  7

 75
     0
147
1.0
148
0.0
149
0.0
100
AcDbLayout
  1
Model
 70
     1
 71
     0
 10
0.0
 20
0.0
 11
12.0
 21
9.0
 12
0.0
 22
0.0
 32
0.0
 14
0.0
 24
0.0
 34
0.0
 15
0.0
 25
0.0
 35
0.0
146
0.0
 13
0.0
 23
0.0
 33
0.0
 16
1.0
 26
0.0
 36
0.0
 17
0.0
 27
1.0
 37
0.0
 76
     0
330
2
  0
MLINESTYLE
  5
25
102
{ACAD_REACTORS
330
22
102
}
330
22
100
AcDbMlineStyle
  2
STANDARD
 70
     0
  3

 62
   256
 51
90.0
 52
90.0
 71
     2
 49
0.5
 62
   256
  6
BYLAYER
 49
-0.5
 62
   256
  6
BYLAYER
  0
ACDBPLACEHOLDER
  5
5
102
{ACAD_REACTORS
330
6
102
}
330
6
  0
ENDSEC
  0
EOF
